˂
˃
Tarqatmalar statistikasi
Ko‘chiraman: [ 1 ]
Ko‘chirmoqdaman: [ 5 ]
Ko‘chirib bo‘ldim: [ 15 ]
 
     
 
 

bekastar ®

Jins:
Yigit
Staj:
1 yil 6 oy
Xabarlar:
35

Qayerdan: Samarqand

Taqiq:

--Qasos/ Месть / Badla- Chiqqan yili: 2019
Davlat: Hindiston
Janri: Triller
Davomiyligi: 01:57:20
Tarjima: Dublyaj (Professional kadr ortidan) [MY5 ] O'zbek Tilida-Rejissiyor: Suja Ghosh-Sеnariy: Suja Ghosh, Raj Vasant
Prodyusеr: Gauri Khan, Sunir Kheterpal, Gurav Verma
Tasvirchi: Avik Mukhopadhyay
Bastakor: Clinton Cereio, Amal Mallik, Anupam Roy
Rassom: Anupamey Sawale, Depika Lal,
Montaj ustasi: Monisha Baldava-Rollarda: Amitabh Bachchan, Taapsy Pannu, Amrita Singh, Tony Luke, Begonia Villaba, Denzil Smith, Tanvir Ghani, Manav Kaul-Tavsif: Taniqli tadbirkor sevgilisini o'ldirishda ayblanmoqda, ish milliy obro'siga putur etkazadi. Suddan oldingi kechada mamlakatda eng yaxshi advokat, 40 yil ichida bitta ishni yo'qotmagan uy qamog'ida o'tirgan ayolga befarq bo'lmas. Kecha davomida u eng yaxshi mudofaa strategiyasini ishlab chiqishi kerak, va bu holda u ham vazn bermaydi.- -Sifat: WEB-DL 1080p
Format: MKV
Video: | H.264/AVC 1920x804 24fps / 4579 kb/s
Audio #1: MPEG -1 layer 3 44100Hz stereo 128 Kbps O'zbek tilida (MY5)
Audio #2: Dolby AC3 48000Hz 6chl 96 Kbps / Russ Tilida (Fan Studio)

Audio #3: Dolby AC3 48000Hz stereo 384Kbps / (Hindcha haqiqiy ovoz)

Media Info

Общее
Уникальный идентификатор                 : 229259281764946407117295006122870219910 (0xAC79BB48B1D38966B87C5EA17B52A486)
Полное имя                               : E:\KINO\Hind Kino\Qasos (Uztracker.me)Uzb.Rus.Eng.mkv
Формат                                   : Matroska
Версия формата                           : Version 4 / Version 2
Размер файла                             : 4,25 Гбайт
Продолжительность                        : 1 ч. 57 м.
Общий поток                              : 5191 Кбит/сек
Название фильма                          : =kinozal.tv-HD=
Дата кодирования                         : UTC 2019-05-20 21:41:14
Программа кодирования                    : mkvmerge v8.3.0 ('Over the Horizon') 64bit
Библиотека кодирования                   : libebml v1.3.1 + libmatroska v1.4.2 / Lavf57.71.100
Обложка                                  : Yes
Attachments                              : cover.jpg
Видео
Идентификатор                            : 2
Формат                                   : AVC
Формат/Информация                        : Advanced Video Codec
Профиль формата                          : High@L4
Настройки формата                        : CABAC / 5 Ref Frames
Параметр CABAC формата                   : Да
Параметр RefFrames формата               : 5 кадров
Идентификатор кодека                     : V_MPEG4/ISO/AVC
Продолжительность                        : 1 ч. 57 м.
Битрейт                                  : 4579 Кбит/сек
Ширина                                   : 1920 пикселей
Высота                                   : 804 пикселя
Соотношение сторон                       : 2,40:1
Режим частоты кадров                     : Постоянный
Частота кадров                           : 24,000 кадра/сек
Цветовое пространство                    : YUV
Субдискретизация насыщенности            : 4:2:0
Битовая глубина                          : 8 бит
Тип развёртки                            : Прогрессивная
Бит/(Пиксели*Кадры)                      : 0.124
Размер потока                            : 3,75 Гбайт (88%)
Заголовок                                : NF-WEBDL@Musafirboy
Default                                  : Да
Forced                                   : Нет
Цветовой диапазон                        : Limited
Основные цвета                           : BT.709
Характеристики трансфера                 : BT.709
Коэффициенты матрицы                     : BT.709
Аудио #1
Идентификатор                            : 1
Формат                                   : MPEG Audio
Версия формата                           : Version 1
Профиль формата                          : Layer 3
Настройки формата                        : Joint stereo / MS Stereo
Идентификатор кодека                     : A_MPEG/L3
Идентификатор кодека/Подсказка           : MP3
Продолжительность                        : 1 ч. 57 м.
Вид битрейта                             : Постоянный
Битрейт                                  : 128 Кбит/сек
Каналы                                   : 2 канала
Частота                                  : 44,1 КГц
Частота кадров                           : 38,281 кадров/сек (1152 SPF)
Метод сжатия                             : С потерями
Размер потока                            : 107 Мбайт (2%)
Заголовок                                : Made By BeK
Библиотека кодирования                   : LAME3.98.2
Язык                                     : Uzbek
Default                                  : Да
Forced                                   : Нет
Аудио #2
Идентификатор                            : 3
Формат                                   : AAC LC
Формат/Информация                        : Advanced Audio Codec Low Complexity
Идентификатор кодека                     : A_AAC-2
Продолжительность                        : 1 ч. 57 м.
Битрейт                                  : 96,0 Кбит/сек
Каналы                                   : 2 канала
Channel layout                           : L R
Частота                                  : 44,1 КГц
Частота кадров                           : 43,066 кадра/сек (1024 SPF)
Метод сжатия                             : С потерями
Размер потока                            : 80,6 Мбайт (2%)
Заголовок                                : FanStudio
Язык                                     : Russian
Default                                  : Нет
Forced                                   : Да
Аудио #3
Идентификатор                            : 4
Формат                                   : AC-3
Формат/Информация                        : Audio Coding 3
Коммерческое название                    : Dolby Digital
Идентификатор кодека                     : A_AC3
Продолжительность                        : 1 ч. 57 м.
Вид битрейта                             : Постоянный
Битрейт                                  : 384 Кбит/сек
Каналы                                   : 6 каналов
Channel layout                           : L R C LFE Ls Rs
Частота                                  : 48,0 КГц
Частота кадров                           : 31,250 кадров/сек (1536 SPF)
Битовая глубина                          : 16 бит
Метод сжатия                             : С потерями
Размер потока                            : 322 Мбайт (7%)
Заголовок                                : AC3@5.1@Musafirboy
Язык                                     : Hindi
ServiceKind/String                       : Complete Main
Default                                  : Нет
Forced                                   : Нет
-LAVHALAR--
.torrent yuklash

Yuqori tezlikda va bepul ko‘chirish!

Qanday yuklab olinadi? · Torrent nima o‘zi? · Reyting va cheklovlar

Profil ShX

Mekhriddin

Jins:
Ko‘rsatilmagan
Staj:
10 oy 16 kun
Xabarlar:
7
Taqiq:

рахмат каттакон

Mavzu yaratish 21-May-2019 21:47 (20 soat o‘tgach)

Iqitibos

Profil ShX
Xabarlarni ko‘rsatish:    

Hozirgi vaqt: 09-Dek 12:27

Vaqtlar farqi: UTC + 5



Siz mavzu yaratishingiz mumkin emas
Siz xabarlarga javob qaytarishingiz mumkin emas
Siz o‘z xabarlaringizni tahrirlashingiz mumkin emas
Siz o‘z xabarlaringizni o‘chirishingiz mumkin emas
Siz so‘rovlarda ovoz berishingiz mumkin emas
Siz xabalarga fayllarni biriktirishingiz mumkin emas
Siz fayllarni ko‘chirishingiz mumkin emas