˂
˃
Tarqatmalar statistikasi
Ko‘chirmoqdaman: [ 2 ]
Ko‘chirib bo‘ldim: [ 16 ]
 
     
 
 

AxeL ®

Jins:
Yigit
Staj:
1 yil 8 oy
Xabarlar:
756

Qayerdan: Gronland, Norway

Taqiq:

Og'ufurush kuryer / Наркокурьер / The Mule - Chiqqan yili: 2018
Davlat: AQSh
Janr: Triller, drama, kriminal, detektiv
Davomiyligi: 01:56:28
Tarjima: Professional (Ko'p ovozli kadr ortidan) O'zbek tilida-Rejissyor: Klint Istvud / Clint Eastwood-Rollarda: Klint Istvud, Bredli Kuper, Taissa Farmiga, Elison Istvud, Maykl Penya, Endi Garsia, Dayen Uist,...-Tavsif: 90-yoshli bog'bon va Koreya urushi faxriysi Meksika kartelining narkokuryeriga aylanadi va Narkotiklarni nazorat qilish agentlari e'tiboriga tushadi.--Sifat: BDRip-AVC
Video format: MKV
Video: MPEG4 Video (H264) 1024x428 23.976fps 1 755 Kbps
Audio: Dolby AC3 48000Hz 6ch 384kbps Rus tilida
Audio 2: Dolby AC3 48000Hz 6ch 448kbps Ingliz tilida
Audio 3: MP3 44100Hz stereo 192kbps O'zbek tilida-

Media Info

General
Unique ID                      : 237704067428581627369514067073261263809 (0xB2D4235CE72058339342A89D1A7A5BC1)
Complete name                  : D:\Films\Tarjima\HD Video\Og'ufurush_kuryer_BDRip-AVC_AxeL.mkv
Format                         : Matroska
Format version                 : Version 4 / Version 2
File size                      : 2.26 GiB
Duration                       : 1h 56mn
Overall bit rate               : 2 781 Kbps
Movie name                     : The Mule 2018 from ExKinoRay
Encoded date                   : UTC 2019-05-19 18:32:34
Writing application            : mkvmerge v22.0.0 ('At The End Of The World') 64-bit
Writing library                : libebml v1.3.5 + libmatroska v1.4.8
Video
ID                             : 1
Format                         : AVC
Format/Info                    : Advanced Video Codec
Format profile                 : High@L4.1
Format settings, CABAC         : Yes
Format settings, ReFrames      : 11 frames
Codec ID                       : V_MPEG4/ISO/AVC
Duration                       : 1h 56mn
Bit rate                       : 1 755 Kbps
Width                          : 1 024 pixels
Height                         : 428 pixels
Display aspect ratio           : 2.40:1
Frame rate mode                : Constant
Frame rate                     : 23.976 (23976/1000) fps
Color space                    : YUV
Chroma subsampling             : 4:2:0
Bit depth                      : 8 bits
Scan type                      : Progressive
Bits/(Pixel*Frame)             : 0.167
Stream size                    : 1.43 GiB (63%)
Title                          : Enigma
Writing library                : x264 core 152 r2851 ba24899
Encoding settings              : cabac=1 / ref=11 / deblock=1:-2:-2 / analyse=0x3:0x113 / me=umh / subme=10 / psy=1 / psy_rd=1.02:0.05 / mixed_ref=1 / me_range=32 / chroma_me=1 / trellis=2 / 8x8dct=1 / cqm=0 / deadzone=21,11 / fast_pskip=0 / chroma_qp_offset=-3 / threads=12 / lookahead_threads=3 / sliced_threads=0 / nr=0 / decimate=0 / interlaced=0 / bluray_compat=0 / constrained_intra=0 / bframes=10 / b_pyramid=2 / b_adapt=2 / b_bias=0 / direct=3 / weightb=1 / open_gop=0 / weightp=2 / keyint=240 / keyint_min=23 / scenecut=40 / intra_refresh=0 / rc_lookahead=40 / rc=2pass / mbtree=1 / bitrate=1755 / ratetol=1.0 / qcomp=0.60 / qpmin=0 / qpmax=51 / qpstep=4 / cplxblur=20.0 / qblur=0.5 / ip_ratio=1.30 / aq=2:0.90
Language                       : English
Default                        : Yes
Forced                         : No
Color range                    : Limited
Color primaries                : BT.709
Transfer characteristics       : BT.709
Matrix coefficients            : BT.709
Audio #1
ID                             : 2
Format                         : AC-3
Format/Info                    : Audio Coding 3
Mode extension                 : CM (complete main)
Format settings, Endianness    : Big
Codec ID                       : A_AC3
Duration                       : 1h 56mn
Bit rate mode                  : Constant
Bit rate                       : 384 Kbps
Channel(s)                     : 6 channels
Channel positions              : Front: L C R, Side: L R, LFE
Sampling rate                  : 48.0 KHz
Frame rate                     : 31.250 fps (1536 spf)
Compression mode               : Lossy
Stream size                    : 320 MiB (14%)
Title                          : iTunes
Language                       : Russian
Default                        : Yes
Forced                         : No
Audio #2
ID                             : 3
Format                         : AC-3
Format/Info                    : Audio Coding 3
Mode extension                 : CM (complete main)
Format settings, Endianness    : Big
Codec ID                       : A_AC3
Duration                       : 1h 56mn
Bit rate mode                  : Constant
Bit rate                       : 448 Kbps
Channel(s)                     : 6 channels
Channel positions              : Front: L C R, Side: L R, LFE
Sampling rate                  : 48.0 KHz
Frame rate                     : 31.250 fps (1536 spf)
Compression mode               : Lossy
Stream size                    : 373 MiB (16%)
Language                       : English
Default                        : No
Forced                         : No
Audio #3
ID                             : 7
Format                         : MPEG Audio
Format version                 : Version 1
Format profile                 : Layer 3
Mode                           : Joint stereo
Mode extension                 : MS Stereo
Codec ID                       : A_MPEG/L3
Codec ID/Hint                  : MP3
Duration                       : 1h 56mn
Bit rate mode                  : Constant
Bit rate                       : 192 Kbps
Channel(s)                     : 2 channels
Sampling rate                  : 44.1 KHz
Frame rate                     : 38.281 fps (1152 spf)
Compression mode               : Lossy
Stream size                    : 160 MiB (7%)
Title                          : O'zbek tilida (DUB) .::AxeL::.
Writing library                : LAME3.97
Language                       : Uzbek
Default                        : No
Forced                         : No
Text #1
ID                             : 4
Format                         : UTF-8
Codec ID                       : S_TEXT/UTF8
Codec ID/Info                  : UTF-8 Plain Text
Duration                       : 1h 55mn
Bit rate                       : 5 bps
Count of elements              : 94
Stream size                    : 4.37 KiB (0%)
Title                          : Forced
Language                       : Russian
Default                        : Yes
Forced                         : No
Text #2
ID                             : 5
Format                         : UTF-8
Codec ID                       : S_TEXT/UTF8
Codec ID/Info                  : UTF-8 Plain Text
Duration                       : 1h 55mn
Bit rate                       : 91 bps
Count of elements              : 1556
Stream size                    : 77.4 KiB (0%)
Title                          : Full
Language                       : Russian
Default                        : No
Forced                         : No
Text #3
ID                             : 6
Format                         : UTF-8
Codec ID                       : S_TEXT/UTF8
Codec ID/Info                  : UTF-8 Plain Text
Duration                       : 1h 46mn
Bit rate                       : 59 bps
Count of elements              : 1517
Stream size                    : 46.7 KiB (0%)
Language                       : English
Default                        : No
Forced                         : No

.torrent yuklash

Yuqori tezlikda va bepul ko‘chirish!

Qanday yuklab olinadi? · Torrent nima o‘zi? · Reyting va cheklovlar

Profil ShX
Xabarlarni ko‘rsatish:    

Hozirgi vaqt: 10-Dek 19:05

Vaqtlar farqi: UTC + 5



Siz mavzu yaratishingiz mumkin emas
Siz xabarlarga javob qaytarishingiz mumkin emas
Siz o‘z xabarlaringizni tahrirlashingiz mumkin emas
Siz o‘z xabarlaringizni o‘chirishingiz mumkin emas
Siz so‘rovlarda ovoz berishingiz mumkin emas
Siz xabalarga fayllarni biriktirishingiz mumkin emas
Siz fayllarni ko‘chirishingiz mumkin emas