˂
˃
Tarqatmalar statistikasi
Ko‘chirmoqdaman: [ 12 ]
Ko‘chirib bo‘ldim: [ 15 ]
 
     
 
 

bekastar ®

Jins:
Yigit
Staj:
1 yil 4 oy
Xabarlar:
35

Qayerdan: Samarqand

Taqiq:

--Temir musht | Темир мушт- Chiqqan yili: 2018
Davlat: O'zbekiston
Janri: Jangari
Davomiyligi: 01:19:27
Tarjima: Talab etilmaydi-Rejissiyor: Mirkamol Karabayev-Sеnariy: Mirkamol Karabayev
Prodyusеr: Rohatxon Karabayev
Tasvirchi: Elyor Aliyev
Bastakor: Abdulqosim Muimzoda
Rassom: Fazliddin Turdiyev-Rollarda: Muxtor Maxmudov, Mirkamol Karabayev, Charosxon Choriyeva va boshqalar-Tavsif: Sodda va chapan Omad ismli yigitni orzulari bir dunyo edi. U Jeki Changa uxshab jangari aktyor bulishni niyat qilardi. O'z orzusi sabab, Omad qishloqdan shaharga otlandi. Kinoni kurib izohda fikringizni qoldiring!-Sifat: WEBRip1080
Format: MP4
Video kodek: MPEG4
Audio kodek: AAC
Video: H.264/AVC 1920x860 / 24.97fps / 2486 kb/s
Audio: AAC / 44100Hz stereo / 126 / Kbps

Media Info

Общее
Полное имя                               : E:\KINO\Temir musht  o'zbek film.mp4
Формат                                   : MPEG-4
Профиль формата                          : Base Media
Идентификатор кодека                     : isom (isom/iso2/avc1/mp41)
Размер файла                             : 1,45 Гбайт
Продолжительность                        : 1 ч. 19 м.
Общий поток                              : 2620 Кбит/сек
Программа кодирования                    : Lavf57.2.100
Видео
Идентификатор                            : 1
Формат                                   : AVC
Формат/Информация                        : Advanced Video Codec
Профиль формата                          : High@L4
Настройки формата                        : CABAC / 3 Ref Frames
Параметр CABAC формата                   : Да
Параметр RefFrames формата               : 3 кадра
Идентификатор кодека                     : avc1
Идентификатор кодека/Информация          : Advanced Video Coding
Продолжительность                        : 1 ч. 19 м.
Битрейт                                  : 2486 Кбит/сек
Ширина                                   : 1920 пикселей
Высота                                   : 860 пикселей
Соотношение сторон                       : 2,25:1
Режим частоты кадров                     : Постоянный
Частота кадров                           : 25,000 кадров/сек
Цветовое пространство                    : YUV
Субдискретизация насыщенности            : 4:2:0
Битовая глубина                          : 8 бит
Тип развёртки                            : Прогрессивная
Бит/(Пиксели*Кадры)                      : 0.060
Размер потока                            : 1,38 Гбайт (95%)
Цветовой диапазон                        : Limited
Основные цвета                           : BT.709
Характеристики трансфера                 : BT.709
Коэффициенты матрицы                     : BT.709
Codec configuration box                  : avcC
Аудио
Идентификатор                            : 2
Формат                                   : AAC LC
Формат/Информация                        : Advanced Audio Codec Low Complexity
Идентификатор кодека                     : mp4a-40-2
Продолжительность                        : 1 ч. 19 м.
Вид битрейта                             : Постоянный
Битрейт                                  : 128 Кбит/сек
Каналы                                   : 2 канала
Channel layout                           : L R
Частота                                  : 44,1 КГц
Частота кадров                           : 43,066 кадра/сек (1024 SPF)
Метод сжатия                             : С потерями
Размер потока                            : 72,8 Мбайт (5%)
Язык                                     : English
Default                                  : Да
AlternateGroup/String                    : 1
-LAVHALAR--
.torrent yuklash

Yuqori tezlikda va bepul ko‘chirish!

Qanday yuklab olinadi? · Torrent nima o‘zi? · Reyting va cheklovlar

Profil ShX

behaking

Jins:
Yigit
Staj:
1 yil 2 oy
Xabarlar:
9
Taqiq:

uzbekcha jeki chanmi qanday ishlangan yaxshi chiqanmi?

Mavzu yaratish 18-May-2019 23:14 (5 soat o‘tgach)

Iqitibos

Profil ShX

bekastar ®

Jins:
Yigit
Staj:
1 yil 4 oy
Xabarlar:
35

Qayerdan: Samarqand

Taqiq:

Hammadan uzur surab qolaman
Tabiiy ofat tufayli internet uchib qoldi
Ertaga tarqatmada turaman.UZUR

Mavzu yaratish 19-May-2019 00:56 (1 soat 41 daqiqa o‘tgach)

Iqitibos

Profil ShX
Xabarlarni ko‘rsatish:    

Hozirgi vaqt: 18-Okt 03:49

Vaqtlar farqi: UTC + 5



Siz mavzu yaratishingiz mumkin emas
Siz xabarlarga javob qaytarishingiz mumkin emas
Siz o‘z xabarlaringizni tahrirlashingiz mumkin emas
Siz o‘z xabarlaringizni o‘chirishingiz mumkin emas
Siz so‘rovlarda ovoz berishingiz mumkin emas
Siz xabalarga fayllarni biriktirishingiz mumkin emas
Siz fayllarni ko‘chirishingiz mumkin emas