˂
˃
Tarqatmalar statistikasi
Ko‘chiraman: [ 1 ]
Ko‘chirmoqdaman: [ 10 ]
Ko‘chirib bo‘ldim: [ 63 ]
 
     
 
 

dilshod6663 ®

Jins:
Ko‘rsatilmagan
Staj:
1 yil 10 oy
Xabarlar:
78
Taqiq:

Chiqarilgan yil: 2019
Mamlakat: Rossiya
Janr: Jangari, drama
Ajratilgan vaqt: 02:30:35
Tarjima #1: Professional Ko'p ovozli O'zbek tili (Favvora studiyasi)
Tarjima #2: Original rus tili (i-tunes)
Rejissor: Andrey Volgin

Rollarda:

Anton Pampushni, Gosha Kutsenko, Milosh Bikovich, Milena Radulovich, Gojko Mitik,
Ravshana Kurkova, Dmitriy Frid, Aleksandar Srechkovich, Svetlana Chuykina, Miodrag Radonich
Tavsif:
Yugoslaviya 1999 yil. Rossiyaning vazifa kuchi, Kosovo Slatina aerodromini nazorat qilishni va kuchaytirishga kelguniga qadar ushlab turishni buyuradi.
Ammo, bu strategik ob'ekt Albaniya qo'mondoni va NATO generali uchun juda muhimdir. Guruh terrorchilar bilan teng bo'lmagan jang olib borishga majbur.
Rossiya tinchlik kuchlari va NATO kuchlari aerodromga hujum qilishmoqda. Dunyo yana katta urushga yaqin.
Biroq maxsus guruhning komandiri Andrey Shatalov siyosatda emas: aeroportda garovdagilar orasida sevimli xotini Jasna ...
Sifat: WEB-DLRip-AVC
Format: MKV
Video: AVC, 2000 Kbit / s, 1024x432, 24 kvadrat / sek
Audio 1: MP3, 2 ch, 48.0 KHz, 128 Kbps | O'ZB
Audio 2: iTunes AC3,6 ch, 384 Kbps | RUS

Media Info ma'lumotlari:

General
Unique ID : 108994310326883028248112507658279702858 (0x51FF8A64EF39E4B417628B3C43A5D14A)
Complete name : G:\kino\Bolqon chegarasi\Bolqon chegarasi.WEB-DLRip.(AVC)..mkv
Format : Matroska
Format version : Version 4
File size : 2.64 GiB
Duration : 2 h 30 min
Overall bit rate : 2 508 kb/s
Encoded date : UTC 2019-05-11 10:40:27
Writing application : mkvmerge v25.0.0 ('Prog Noir') 64-bit
Writing library : libebml v1.3.6 + libmatroska v1.4.9
Video
ID : 1
Format : AVC
Format/Info : Advanced Video Codec
Format profile : High@L4.1
Format settings : CABAC / 9 Ref Frames
Format settings, CABAC : Yes
Format settings, ReFrames : 9 frames
Codec ID : V_MPEG4/ISO/AVC
Duration : 2 h 30 min
Bit rate : 2 000 kb/s
Width : 1 024 pixels
Height : 432 pixels
Display aspect ratio : 2.40:1
Frame rate mode : Constant
Frame rate : 24.000 FPS
Color space : YUV
Chroma subsampling : 4:2:0
Bit depth : 8 bits
Scan type : Progressive
Bits/(Pixel*Frame) : 0.188
Stream size : 2.10 GiB (80%)
Writing library : x264 core 146 r2538 121396c
Encoding settings : cabac=1 / ref=9 / deblock=1:-2:-1 / analyse=0x3:0x113 / me=umh / subme=9 / psy=1 / psy_rd=1.00:0.15 / mixed_ref=1 / me_range=32 / chroma_me=1 / trellis=2 / 8x8dct=1 / cqm=0 / deadzone=21,11 / fast_pskip=0 / chroma_qp_offset=-3 / threads=18 / lookahead_threads=3 / sliced_threads=0 / nr=0 / decimate=1 / interlaced=0 / bluray_compat=0 / constrained_intra=0 / bframes=9 / b_pyramid=2 / b_adapt=2 / b_bias=0 / direct=3 / weightb=1 / open_gop=0 / weightp=2 / keyint=250 / keyint_min=23 / scenecut=40 / intra_refresh=0 / rc_lookahead=40 / rc=2pass / mbtree=0 / bitrate=2000 / ratetol=1.0 / qcomp=0.60 / qpmin=0 / qpmax=69 / qpstep=4 / cplxblur=20.0 / qblur=0.5 / vbv_maxrate=14000 / vbv_bufsize=14000 / nal_hrd=none / filler=0 / ip_ratio=1.40 / pb_ratio=1.30 / aq=2:1.00
Default : Yes
Forced : No
Color range : Limited
Color primaries : BT.709
Transfer characteristics : BT.709
Matrix coefficients : BT.709
Audio #1
ID : 2
Format : AC-3
Format/Info : Audio Coding 3
Commercial name : Dolby Digital
Codec ID : A_AC3
Duration : 2 h 30 min
Bit rate mode : Constant
Bit rate : 384 kb/s
Channel(s) : 6 channels
Channel layout : L R C LFE Ls Rs
Sampling rate : 48.0 kHz
Frame rate : 31.250 FPS (1536 SPF)
Bit depth : 16 bits
Compression mode : Lossy
Stream size : 414 MiB (15%)
Service kind : Complete Main
Default : Yes
Forced : No
Audio #2
ID : 3
Format : MPEG Audio
Format version : Version 1
Format profile : Layer 3
Format settings : Joint stereo / MS Stereo
Codec ID : A_MPEG/L3
Codec ID/Hint : MP3
Duration : 2 h 30 min
Bit rate mode : Constant
Bit rate : 128 kb/s
Channel(s) : 2 channels
Sampling rate : 48.0 kHz
Frame rate : 41.667 FPS (1152 SPF)
Compression mode : Lossy
Stream size : 138 MiB (5%)
Title : O'zbek tili Favvora Studiyasi
Language : Uzbek
Default : No
Forced : No
.torrent yuklash

Yuqori tezlikda va bepul ko‘chirish!

Qanday yuklab olinadi? · Torrent nima o‘zi? · Reyting va cheklovlar

Profil ShX

AxeL

Jins:
Yigit
Staj:
1 yil 6 oy
Xabarlar:
756

Qayerdan: Gronland, Norway

Taqiq:

8219To‘liq manba yo‘q: Hech qachon
3 soatdan beri reliz qilishga qilibsizu, tarqatishga qo'ymabsiz

Mavzu yaratish 11-May-2019 19:41 (3 soat o‘tgach)

Iqitibos

Profil ShX

dilshod6663 ®

Jins:
Ko‘rsatilmagan
Staj:
1 yil 10 oy
Xabarlar:
78
Taqiq:

8222
8219To‘liq manba yo‘q: Hech qachon
3 soatdan beri reliz qilishga qilibsizu, tarqatishga qo'ymabsiz
AxeL charchadim asongina taxladi dib uyladizmi? bu joy ishxonam uyim emas xaliyam.

Mavzu yaratish 11-May-2019 21:25 (1 soat 43 daqiqa o‘tgach)

Iqitibos

Profil ShX

Soft-Release

Jins:
Yigit
Staj:
1 yil 7 oy
Xabarlar:
835

Qayerdan: Kattakurgan

Taqiq:

8223
8222
8219To‘liq manba yo‘q: Hech qachon
3 soatdan beri reliz qilishga qilibsizu, tarqatishga qo'ymabsiz
AxeL charchadim asongina taxladi dib uyladizmi? bu joy ishxonam uyim emas xaliyam.
dilshod6663, Reliz Qilgandan Keyin Albatta Tarqatish Shart! Men Shunday Qilaman Reliz Qilsam 3 Kun Tarqatishda Turib Beraman Hamma Yuklab Olgach Keyin Tarqatishdan Ketaman! Yoki Reliz Qilmayman! Bu Hali Ham O'zimizni O'zbekona Trekerimiz O'zimizni Akalarimiz! Agar Qo'shni Trekerga Shunday Qilganizda Odamlar Yeb Yuborardi 15 Daqiqa Ichida! D: Taxlab Bolgandan Keyin Tarqatishga Qo'yib Qo'yish Qiyin Emasku 1 Minut Ham Vaqt Ketmaydi!

Mavzu yaratish 11-May-2019 21:28 (3 daqiqa o‘tgach)

Iqitibos

Profil ShX

dilshod6663 ®

Jins:
Ko‘rsatilmagan
Staj:
1 yil 10 oy
Xabarlar:
78
Taqiq:

8224
8223
8222
8219To‘liq manba yo‘q: Hech qachon
3 soatdan beri reliz qilishga qilibsizu, tarqatishga qo'ymabsiz
AxeL charchadim asongina taxladi dib uyladizmi? bu joy ishxonam uyim emas xaliyam.
dilshod6663, Reliz Qilgandan Keyin Albatta Tarqatish Shart! Men Shunday Qilaman Reliz Qilsam 3 Kun Tarqatishda Turib Beraman Hamma Yuklab Olgach Keyin Tarqatishdan Ketaman! Yoki Reliz Qilmayman! Bu Hali Ham O'zimizni O'zbekona Trekerimiz O'zimizni Akalarimiz! Agar Qo'shni Trekerga Shunday Qilganizda Odamlar Yeb Yuborardi 15 Daqiqa Ichida! D: Taxlab Bolgandan Keyin Tarqatishga Qo'yib Qo'yish Qiyin Emasku 1 Minut Ham Vaqt Ketmaydi!
Soft-Release dustim bu meni ishxonam bu kompyutor ishxonaniki men ishdan bush vaqtim reliz qilaman. bu kompyutorni xoxlagan payt yoqib quyolmiman. Uyda xam kompyutorim bor lekin enternit unga ulanmagan shu sababli bu kompyutorni xoxlagan vaqt yoqib quyolmiman meni tug'ri tushindizlar digan umiddaman.

Mavzu yaratish 11-May-2019 21:51 (22 daqiqa o‘tgach)

Iqitibos

Profil ShX

dilshod6663 ®

Jins:
Ko‘rsatilmagan
Staj:
1 yil 10 oy
Xabarlar:
78
Taqiq:

Soft-Release agar sizday uyimda entirnitga kirib utirish sharoitim bulgandami men 1 kunda 3 ta reliz chiqarardim

Mavzu yaratish 11-May-2019 21:54 (2 daqiqa o‘tgach)

Iqitibos

Profil ShX

ZAFAR-studio

Jins:
Yigit
Staj:
1 yil 3 oy
Xabarlar:
51

Qayerdan: Хоразм вилояти, Урганч шаҳри, "12-сонли Маъшал" маҳалласидан

Taqiq:

dilshod6663, ишларингизга омад, меҳнатингизни қадрлаб сизга ўз миннатдорчилигимни билдираман.

Mavzu yaratish 11-May-2019 22:48 (54 daqiqa o‘tgach)

Iqitibos

Profil ShX

dilshod6663 ®

Jins:
Ko‘rsatilmagan
Staj:
1 yil 10 oy
Xabarlar:
78
Taqiq:

ZAFAR-studio raxmat sizni ham ishlarizga omad

Mavzu yaratish 11-May-2019 22:55 (7 daqiqa o‘tgach)

Iqitibos

Profil ShX

AxeL

Jins:
Yigit
Staj:
1 yil 6 oy
Xabarlar:
756

Qayerdan: Gronland, Norway

Taqiq:

8223
8222
8219To‘liq manba yo‘q: Hech qachon
3 soatdan beri reliz qilishga qilibsizu, tarqatishga qo'ymabsiz
AxeL charchadim asongina taxladi dib uyladizmi? bu joy ishxonam uyim emas xaliyam.
HD tarjima jarayonining qiyinchiliklarini yahshi bilaman, hattoki bitta relizni ustida 3-4 kunlab ishlagan vaqtlarim ham bo'lgan, men sizni tushundim, lekin relizni taxlab bo'lgach tarqatishga qo'yib qo'yish hech qancha vaqt olmaydi, ishlarizga omad zo'r ketyapsiz

Mavzu yaratish 11-May-2019 23:47 (52 daqiqa o‘tgach)

Iqitibos

Profil ShX

dimab707

Jins:
Yigit
Staj:
11 oy 9 kun
Xabarlar:
21

Qayerdan: Toshkent

Taqiq:

dilshod6663, kino uchun raxmat!!!

Mavzu yaratish 12-May-2019 22:44 (22 soat o‘tgach)

Iqitibos

Profil ShX

dilshod6663 ®

Jins:
Ko‘rsatilmagan
Staj:
1 yil 10 oy
Xabarlar:
78
Taqiq:

dimab707 Trekkir rivoji uchun qulimdan kelguncha faol bulishga xarakat qilaman nafaqat men balki xammani faol bulishini surayman

Mavzu yaratish 13-May-2019 01:04 (2 soat 20 daqiqa o‘tgach)

Iqitibos

Profil ShX

dilshod6663 ®

Jins:
Ko‘rsatilmagan
Staj:
1 yil 10 oy
Xabarlar:
78
Taqiq:

Kuchirib charchamiyapsilarmi menda yaxshi 100-120 kbs atrofida tarqaliyapti

Mavzu yaratish 14-May-2019 11:50 (1 kun 10 soat o‘tgach)

Iqitibos

Profil ShX

dilshod6663 ®

Jins:
Ko‘rsatilmagan
Staj:
1 yil 10 oy
Xabarlar:
78
Taqiq:

mana kinoniyam 3 kinda yuklab buldilar sila faqat tortishasilareee ag

Mavzu yaratish 14-May-2019 12:56 (1 soat 5 daqiqa o‘tgach)

Iqitibos

Profil ShX
Xabarlarni ko‘rsatish:    

Hozirgi vaqt: 15-Okt 19:28

Vaqtlar farqi: UTC + 5



Siz mavzu yaratishingiz mumkin emas
Siz xabarlarga javob qaytarishingiz mumkin emas
Siz o‘z xabarlaringizni tahrirlashingiz mumkin emas
Siz o‘z xabarlaringizni o‘chirishingiz mumkin emas
Siz so‘rovlarda ovoz berishingiz mumkin emas
Siz xabalarga fayllarni biriktirishingiz mumkin emas
Siz fayllarni ko‘chirishingiz mumkin emas