˂
˃
Tarqatmalar statistikasi
Ko‘chiraman: [ 2 ]
Ko‘chirmoqdaman: [ 2 ]
 
     
 
 

XVII ®

Jins:
Yigit
Staj:
1 yil 8 oy
Xabarlar:
143

Qayerdan: Surkhandarya

Taqiq:

Vir va Zara | Вир и Зара | Veer-Zaara
Chiqqan yili: 2004
Davlat: Hindiston
Janr: musiqa, drama, melodramma
Davomiyligi: 03:16:32
Tarjima: Professional (dublyaj qilingan)
Tarjima 2: Professional (dublyaj qilingan)
Tarjima 3: Professional (dublyaj qilingan)
Rejissyor: Yash Chopra
Rollarda: Shohruhxon, Priti Zinta, Rani Mukerji, Kiron Xer, Divya Datta va boshqalar
Tavsif:
Film, Pokiston qamoqxonasida qamalgan Vira Pratap Singhning namoyishi bilan boshlanadi. O'tgan yillar mobaynida qamoq jazosini o'tamagan, u hech qanday so'z aytolmagan! Uning jimligining sababi nima?
Huquq himoyachisi Samia Sidikkining (Pokistonning taniqli advokati Asma Jeyjirning shaxsiga asoslangan qahramonning xarakterini topish) Viruga yordam berishni istagan inson huquqlari himoyachisi Samia Sidikkiga qadar. Va u gapirishga qodir. Yig'ilishlar orqali biz uning sevgi haqidagi hikoyasini ko'rib turibmiz ...
Videoning sifati: BDRip
Video format: MKV
Video: 1280x546 24fps 5 461 kb/s
Audio: MP3 48000Hz 224kbps |Uzb|
Audio 2: Dolby AC3 48000Hz 6ch 448kbps |Rus|
Audio 3: Dolby AC3 48000Hz 6ch 448kbps |Hin|
Subtitrlar: Russian

Media Info

General
Unique ID : 233186993571861522079885851148917039938 (0xAF6E2E6D5B9B5736B653EB5BFE2E6342)
Complete name : D:\VEER ZARA\Вир и Зара--2004.P.O.BDRip.720p.mkv
Format : Matroska
Format version : Version 4 / Version 2
File size : 7.34 GiB
Duration : 3 h 12 min
Overall bit rate : 5 461 kb/s
Encoded date : UTC 2015-03-27 06:33:58
Writing application : mkvmerge v7.7.0 ('Six Voices') 64bit built on Feb 28 2015 23:39:33
Writing library : libebml v1.3.1 + libmatroska v1.4.2
Video
ID : 1
Format : AVC
Format/Info : Advanced Video Codec
Format profile : High@L4.1
Format settings : CABAC / 9 Ref Frames
Format settings, CABAC : Yes
Format settings, ReFrames : 9 frames
Codec ID : V_MPEG4/ISO/AVC
Duration : 3 h 12 min
Bit rate : 4 563 kb/s
Width : 1 280 pixels
Height : 546 pixels
Display aspect ratio : 2.35:1
Frame rate mode : Constant
Frame rate : 24.000 FPS
Color space : YUV
Chroma subsampling : 4:2:0
Bit depth : 8 bits
Scan type : Progressive
Bits/(Pixel*Frame) : 0.272
Stream size : 6.13 GiB (84%)
Title : BDRip -- STarankov
Writing library : x264 core 142 r2431 ac76440
Encoding settings : cabac=1 / ref=9 / deblock=1:-1:-1 / analyse=0x3:0x113 / me=umh / subme=10 / psy=1 / psy_rd=1.00:0.15 / mixed_ref=1 / me_range=32 / chroma_me=1 / trellis=2 / 8x8dct=1 / cqm=0 / deadzone=21,11 / fast_pskip=1 / chroma_qp_offset=-3 / threads=6 / lookahead_threads=1 / sliced_threads=0 / nr=0 / decimate=1 / interlaced=0 / bluray_compat=0 / constrained_intra=0 / bframes=12 / b_pyramid=2 / b_adapt=2 / b_bias=0 / direct=3 / weightb=1 / open_gop=0 / weightp=2 / keyint=230 / keyint_min=23 / scenecut=40 / intra_refresh=0 / rc_lookahead=40 / rc=crf / mbtree=0 / crf=19.5 / qcomp=0.60 / qpmin=0 / qpmax=69 / qpstep=4 / vbv_maxrate=40000 / vbv_bufsize=50000 / crf_max=0.0 / nal_hrd=none / filler=0 / ip_ratio=1.40 / pb_ratio=1.30 / aq=1:1.00
Language : Hindi
Default : Yes
Forced : No
Audio #1
ID : 2
Format : AC-3
Format/Info : Audio Coding 3
Codec ID : A_AC3
Duration : 3 h 12 min
Bit rate mode : Constant
Bit rate : 448 kb/s
Channel(s) : 6 channels
Channel positions : Front: L C R, Side: L R, LFE
Sampling rate : 48.0 kHz
Frame rate : 31.250 FPS (1536 SPF)
Bit depth : 16 bits
Compression mode : Lossy
Stream size : 617 MiB (8%)
Title : MVO
Language : Russian
Service kind : Complete Main
Default : Yes
Forced : No
Audio #2
ID : 3
Format : AC-3
Format/Info : Audio Coding 3
Codec ID : A_AC3
Duration : 3 h 12 min
Bit rate mode : Constant
Bit rate : 448 kb/s
Channel(s) : 6 channels
Channel positions : Front: L C R, Side: L R, LFE
Sampling rate : 48.0 kHz
Frame rate : 31.250 FPS (1536 SPF)
Bit depth : 16 bits
Compression mode : Lossy
Stream size : 617 MiB (8%)
Title : Original
Language : Hindi
Service kind : Complete Main
Default : No
Forced : No
Text
ID : 4
Format : UTF-8
Codec ID : S_TEXT/UTF8
Codec ID/Info : UTF-8 Plain Text
Duration : 3 h 9 min
Bit rate : 64 b/s
Count of elements : 1625
Stream size : 88.9 KiB (0%)
Title : английские
Language : English
Default : No
Forced : No

Lavhalar

.torrent yuklash

Yuqori tezlikda va bepul ko‘chirish!

Qanday yuklab olinadi? · Torrent nima o‘zi? · Reyting va cheklovlar

Profil ShX

AxeL

Jins:
Yigit
Staj:
1 yil 8 oy
Xabarlar:
756

Qayerdan: Gronland, Norway

Taqiq:

Good job! gap yo'q, ishlaringizga omad tilayman...

Mavzu yaratish 10-May-2019 19:42 (4 soat o‘tgach)

Iqitibos

Profil ShX

XVII ®

Jins:
Yigit
Staj:
1 yil 8 oy
Xabarlar:
143

Qayerdan: Surkhandarya

Taqiq:

AxeL, men hohlagan uslubda reliz qilolaman faqat internetni uploadi pand beryapti(

Mavzu yaratish 10-May-2019 22:56 (3 soat o‘tgach)

Iqitibos

Profil ShX

AxeL

Jins:
Yigit
Staj:
1 yil 8 oy
Xabarlar:
756

Qayerdan: Gronland, Norway

Taqiq:

XVII, nimaga manba yo'q 8 soatdan beri

Mavzu yaratish 10-May-2019 23:48 (52 daqiqa o‘tgach)

Iqitibos

Profil ShX

Soft-Release

Jins:
Yigit
Staj:
1 yil 8 oy
Xabarlar:
845

Qayerdan: Kattakurgan

Taqiq:

8213XVII, nimaga manba yo'q 8 soatdan beri
AxeL, Uploadi Pastda!

Mavzu yaratish 11-May-2019 00:51 (1 soat 3 daqiqa o‘tgach)

Iqitibos

Profil ShX

XVII ®

Jins:
Yigit
Staj:
1 yil 8 oy
Xabarlar:
143

Qayerdan: Surkhandarya

Taqiq:

8213XVII, nimaga manba yo'q 8 soatdan beri
uzr razdachaga quyısh esda yuq)

Mavzu yaratish 11-May-2019 01:19 (28 daqiqa o‘tgach)

Iqitibos

Profil ShX

AxeL

Jins:
Yigit
Staj:
1 yil 8 oy
Xabarlar:
756

Qayerdan: Gronland, Norway

Taqiq:

sal kam bir hafta bo'lyapti, sizga 2 kun, relizni tarqatishga qo'ymasangiz arxivga ketadi

Mavzu yaratish 16-May-2019 11:57 (5 kun o‘tgach)

Iqitibos

Profil ShX

XVII ®

Jins:
Yigit
Staj:
1 yil 8 oy
Xabarlar:
143

Qayerdan: Surkhandarya

Taqiq:

8248sal kam bir hafta bo'lyapti, sizga 2 kun, relizni tarqatishga qo'ymasangiz arxivga ketadi
meni uncha kup vaqtim bulmayapti, bulganda turayapman lekin kuchirayotganlar kuchirmayapti

Mavzu yaratish 17-May-2019 16:25 (1 kun 4 soat o‘tgach)

Iqitibos

Profil ShX
Xabarlarni ko‘rsatish:    

Hozirgi vaqt: 10-Dek 18:31

Vaqtlar farqi: UTC + 5



Siz mavzu yaratishingiz mumkin emas
Siz xabarlarga javob qaytarishingiz mumkin emas
Siz o‘z xabarlaringizni tahrirlashingiz mumkin emas
Siz o‘z xabarlaringizni o‘chirishingiz mumkin emas
Siz so‘rovlarda ovoz berishingiz mumkin emas
Siz xabalarga fayllarni biriktirishingiz mumkin emas
Siz fayllarni ko‘chirishingiz mumkin emas