˂
˃
Tarqatmalar statistikasi
Ko‘chiraman: [ 1 ]
Ko‘chirmoqdaman: [ 6 ]
Ko‘chirib bo‘ldim: [ 34 ]
 
     
 
 

rameo1988 ®

Jins:
Yigit
Staj:
10 oy 2 kun
Xabarlar:
65

Qayerdan: Tashkent

Taqiq:

- -Qonun Doirasidan Tashqarida | Законопослушный Гражданин | Law Abiding Citizen- -Chiqqan yili: 2009
Davlat: AQSH, Germaniya
Janr: Jangari, Triller, Drama, Jinoyatchilik.
Davomiyligi: 01:48:29
Tarjima 1: Professional (Ko'p ovozli kadr ortidan) O'zbek Tilida
Tarjima 2: Professional (dublyaj qilingan) Rus Tilida
Tarjima 3: Professional (dublyaj Original) Eng Tilida-Rejissyor: Feliks Gari Gray

Rollarda: Jamie Foxx - (Nick Rice), Gerard butler - (Clyde Shelton), Colm Meaney - (Detective Dunnigan), Bryus mcgill - (Jonas Cantrell), Leslie Bibb - (Sarah Lowell), Michael Irby - (Detective Garza), Gregorilar Itzin - (Warden Iger), Regina Hall - (Kelly Rice), Emirald Young - (Denise Rice), Christian Stolte - (Clarence Darby)...-Tavsif: Tuman prokurori jinoyatchilar bilan shartnoma tuzdi va ularni qamoqdan ozod qildi. Keyin ko'z oldida xotini va bolasi qotillar qo'lida vafot etgan kishi prokurordan qasos olishga qaror qiladi, adolatni o'zi amalga oshiradi. U qo'lga olinadi va qamoqqa yuboriladi, lekin u kutilmaganda ultimatum qo'yadi: agar uning talablari bajarilmasa, u panjara tashqarisiga chiqmasdan o'ldiriladi. Kulgili bir bayonot, lekin tez orada odamlar o'lishni boshlaydilar… )))-Reyting:
-Videoning sifati: BDRip 720p
Video format: MKV
Video: 1280 x 720, 23,976 fps, 1 966 Kbps
Audio 1: MP3 / 44.1Hz stereo 2.0ch / 128 kbps / O'zbek tilida
Audio 2: AC-3 / 48Hz stereo 5.1ch / 448 Kbps / Rus tilida
Audio 3: AC-3 / 48Hz stereo 5.1ch / 448 Kbps / Eng tilida
-

Media Info

E:\Qonun Doirasidan Tashqarida - 2009_ Uzb_rus_eng (1).mkv
General
Unique ID : 220697517280572739231991434746447772503 (0xA608CBB4311491A8AC67F692971BBB57)
Complete name : E:\Qonun Doirasidan Tashqarida - 2009_ Uzb_rus_eng.mkv
Format : Matroska
Format version : Version 4 / Version 2
File size : 2.27 GiB
Duration : 1h 48mn
Overall bit rate : 2 993 Kbps
Video #1
ID : 1
Format : MPEG-4 Visual
Format profile : Advanced Simple@L5
Format settings, BVOP : 1
Format settings, QPel : No
Format settings, GMC : No warppoints
Format settings, Matrix : Default (MPEG)
Codec ID : V_MS/VFW/FOURCC / XVID
Codec ID/Hint : XviD
Duration : 1h 48mn
Bit rate : 1 966 Kbps
Width : 1280 pixels
Height : 720 pixels
Display aspect ratio : 2.35:1
Frame rate mode : Constant
Frame rate : 23.976 (23976/1000) fps
Color space : YUV
Chroma subsampling : 4:2:0
Bit depth : 8 bits
Scan type : Progressive
Compression mode : Lossy
Bits/(Pixel*Frame) : 0.375
Stream size : 1.49 GiB (66%)
Title : by ZET
Writing library : XviD 1.2.1 (UTC 2008-12-04)
Default : Yes
Forced : No
Audio #2
ID : 2
Format : AC-3
Format/Info : Audio Coding 3
Mode extension : CM (complete main)
Format settings, Endianness : Big
Codec ID : A_AC3
Duration : 1h 48mn
Bit rate mode : Constant
Bit rate : 448 Kbps
Channel(s) : 6 channels
Channel positions : Front: L C R, Side: L R, LFE
Sampling rate : 48.0 KHz
Frame rate : 31.250 fps (1536 spf)
Compression mode : Lossy
Stream size : 348 MiB (15%)
Title : Russian (by ZET)
Language : Russian
Default : Yes
Forced : Yes
Audio #3
ID : 3
Format : AAC
Format/Info : Advanced Audio Codec
Format profile : LC
Codec ID : A_AAC
Duration : 1h 48mn
Bit rate : 128 Kbps
Channel(s) : 2 channels
Channel positions : Front: L R
Sampling rate : 44.1 KHz
Frame rate : 43.066 fps (1024 spf)
Compression mode : Lossy
Stream size : 99.6 MiB (4%)
Title : Uzbek (by ZET)
Language : Uzbek
Default : No
Forced : Yes
Audio #4
ID : 4
Format : AC-3
Format/Info : Audio Coding 3
Mode extension : CM (complete main)
Format settings, Endianness : Big
Codec ID : A_AC3
Duration : 1h 48mn
Bit rate mode : Constant
Bit rate : 448 Kbps
Channel(s) : 6 channels
Channel positions : Front: L C R, Side: L R, LFE
Sampling rate : 48.0 KHz
Frame rate : 31.250 fps (1536 spf)
Compression mode : Lossy
Stream size : 348 MiB (15%)
Title : English (by ZET)
Language : English
Default : No
Forced : Yes

.torrent yuklash

Yuqori tezlikda va bepul ko‘chirish!

Qanday yuklab olinadi? · Torrent nima o‘zi? · Reyting va cheklovlar

Profil ShX

MRLG

Jins:
Yigit
Staj:
2 yil 1 oy
Xabarlar:
618
Taqiq:

Zo'r film. Ko'rmaganlarga tavsiya qilaman.

Mavzu yaratish 09-May-2019 08:22 (5 soat o‘tgach)

Iqitibos

Profil ShX

rameo1988 ®

Jins:
Yigit
Staj:
10 oy 2 kun
Xabarlar:
65

Qayerdan: Tashkent

Taqiq:

8195Zo'r film. Ko'rmaganlarga tavsiya qilaman.
albbata ko'rmaganla bo'sa ko'rila kino xaqiqatan juda zo'r iwlangan

Mavzu yaratish 09-May-2019 10:38 (2 soat 15 daqiqa o‘tgach)

Iqitibos

Profil ShX

Lock

Jins:
Yigit
Staj:
1 yil
Xabarlar:
49

Qayerdan: Namangan

Taqiq:

ooo shedevr

Mavzu yaratish 10-May-2019 08:40 (22 soat o‘tgach)

Iqitibos

Profil ShX
Xabarlarni ko‘rsatish:    

Hozirgi vaqt: 15-Okt 19:09

Vaqtlar farqi: UTC + 5



Siz mavzu yaratishingiz mumkin emas
Siz xabarlarga javob qaytarishingiz mumkin emas
Siz o‘z xabarlaringizni tahrirlashingiz mumkin emas
Siz o‘z xabarlaringizni o‘chirishingiz mumkin emas
Siz so‘rovlarda ovoz berishingiz mumkin emas
Siz xabalarga fayllarni biriktirishingiz mumkin emas
Siz fayllarni ko‘chirishingiz mumkin emas