˂
˃
Tarqatmalar statistikasi
Ko‘chiraman: [ 2 ]
Ko‘chirmoqdaman: [ 1 ]
Ko‘chirib bo‘ldim: [ 12 ]
 
     
 
 

MRLG ®

Jins:
Yigit
Staj:
2 yil 3 oy
Xabarlar:
619
Taqiq:

Sotqin | Стукач | Snitch
Chiqqan yili: 2013
Davlat: AQSH
Janr: Jangari, triller, drama
Davomiyligi: 01:52:02
Tarjima: Professional (Ko'p ovozli kadr ortidan) Yoshlar
Tarjima 2: Professional (dublyaj qilingan) (Litsenziya BD RUS)
Subtitrlar: Rus, Eng (Full + SDH + SDH-Colored)-Rejissyor: Rik Roman Vo-Rollarda: Dueyn Djonson, Barri Pepper, Djon Berntal, Syuzen Sarandon, Maykl K. Uilyams, Rafi Gavron, Melina Kanakaredes, Nadin Velaskes, Bendjamin Brett, Lela Loren-Tavsif: Giyohvand moddalar savdosi tufayli uzoq muddat xavf solib turganda, farzandini qutqarish uchun ota politsiya bilan sulh tuzadi. U giyohfurushlar mafiyasi ichiga kirib borishi kerak bo`ladi.- -Sifat: BDRip-AVC
Video format: MKV
Video: H.264, 1056x440 (2.40:1), 23.976 fps, 1420 Кbps, 0.127 bit/pixel
Audio: 48 kHz, MP3, 2ch, 128.00 kbps
Audio 2: 48 kHz, AC3 Dolby Digital, 3/2 (L,C,R,l,r) + LFE ch, 448.00 kbps-

Miniatyura

Media Info

General
Unique ID                   : 174200163696961105396584803200874830992 (0x830DBB2D2D99FB2F82852DEFCAF7DC90)
Complete name               : D:\Кино\Дубляж фильмлар\HD Films Collection\Sotqin.2013.UZB.RUS.BDRip.-[MRLG].mkv
Format                      : Matroska
Format version              : Version 2
File size                   : 1.56 GiB
Duration                    : 1 h 52 min
Overall bit rate            : 1 996 kb/s
Movie name                  : Snitch (2013) - HELLYWOOD
Encoded date                : UTC 2019-05-03 04:07:19
Writing application         : mkvmerge v7.8.0 ('River Man') 32bit built on Apr  3 2015 12:11:22
Writing library             : libebml v1.3.1 + libmatroska v1.4.2
Cover                       : Yes
Attachments                 : cover.jpg
Video
ID                          : 1
Format                      : AVC
Format/Info                 : Advanced Video Codec
Format profile              : High@L4.1
Format settings             : CABAC / 11 Ref Frames
Format settings, CABAC      : Yes
Format settings, ReFrames   : 11 frames
Codec ID                    : V_MPEG4/ISO/AVC
Duration                    : 1 h 52 min
Bit rate                    : 1 420 kb/s
Width                       : 1 056 pixels
Height                      : 440 pixels
Display aspect ratio        : 2.40:1
Frame rate mode             : Constant
Frame rate                  : 23.976 FPS
Color space                 : YUV
Chroma subsampling          : 4:2:0
Bit depth                   : 8 bits
Scan type                   : Progressive
Bits/(Pixel*Frame)          : 0.127
Stream size                 : 1.08 GiB (69%)
Title                       : potroks
Writing library             : x264 core 125 r2208 d9d2288
Encoding settings           : cabac=1 / ref=11 / deblock=1:-2:-2 / analyse=0x3:0x133 / me=umh / subme=11 / psy=1 / psy_rd=1.06:0.01 / mixed_ref=1 / me_range=48 / chroma_me=1 / trellis=2 / 8x8dct=1 / cqm=0 / deadzone=21,11 / fast_pskip=0 / chroma_qp_offset=-3 / threads=9 / lookahead_threads=1 / sliced_threads=0 / nr=0 / decimate=1 / interlaced=0 / bluray_compat=0 / constrained_intra=0 / bframes=12 / b_pyramid=2 / b_adapt=2 / b_bias=0 / direct=3 / weightb=1 / open_gop=0 / weightp=2 / keyint=240 / keyint_min=23 / scenecut=40 / intra_refresh=0 / rc_lookahead=150 / rc=2pass / mbtree=1 / bitrate=1420 / ratetol=1.0 / qcomp=0.70 / qpmin=0 / qpmax=69 / qpstep=4 / cplxblur=20.0 / qblur=0.5 / vbv_maxrate=20000 / vbv_bufsize=20000 / nal_hrd=none / ip_ratio=1.35 / aq=1:0.90
Language                    : English
Default                     : Yes
Forced                      : No
Audio #1
ID                          : 2
Format                      : MPEG Audio
Format version              : Version 1
Format profile              : Layer 3
Format settings             : Joint stereo / MS Stereo
Codec ID                    : A_MPEG/L3
Codec ID/Hint               : MP3
Duration                    : 1 h 51 min
Bit rate mode               : Constant
Bit rate                    : 128 kb/s
Channel(s)                  : 2 channels
Sampling rate               : 48.0 kHz
Frame rate                  : 41.667 FPS (1152 SPF)
Compression mode            : Lossy
Stream size                 : 102 MiB (6%)
Title                       : Yoshlar | MRLG
Writing library             : LAME3.100
Encoding settings           : -m j -V 4 -q 2 -lowpass 17 -b 128
Language                    : Uzbek
Default                     : Yes
Forced                      : No
Audio #2
ID                          : 3
Format                      : AC-3
Format/Info                 : Audio Coding 3
Commercial name             : Dolby Digital
Codec ID                    : A_AC3
Duration                    : 1 h 52 min
Bit rate mode               : Constant
Bit rate                    : 448 kb/s
Channel(s)                  : 6 channels
Channel layout              : L R C LFE Ls Rs
Sampling rate               : 48.0 kHz
Frame rate                  : 31.250 FPS (1536 SPF)
Bit depth                   : 16 bits
Compression mode            : Lossy
Delay relative to video     : 20 ms
Stream size                 : 359 MiB (22%)
Title                       : Dub |DD 5.1 @ 448 kbps - Blu-Ray RUS
Language                    : Russian
Service kind                : Complete Main
Default                     : No
Forced                      : No
Text #1
ID                          : 4
Format                      : UTF-8
Codec ID                    : S_TEXT/UTF8
Codec ID/Info               : UTF-8 Plain Text
Language                    : Russian
Default                     : No
Forced                      : No
Text #2
ID                          : 5
Format                      : UTF-8
Codec ID                    : S_TEXT/UTF8
Codec ID/Info               : UTF-8 Plain Text
Title                       : Full
Language                    : English
Default                     : No
Forced                      : No
Text #3
ID                          : 6
Format                      : UTF-8
Codec ID                    : S_TEXT/UTF8
Codec ID/Info               : UTF-8 Plain Text
Title                       : SDH
Language                    : English
Default                     : No
Forced                      : No
Text #4
ID                          : 7
Format                      : UTF-8
Codec ID                    : S_TEXT/UTF8
Codec ID/Info               : UTF-8 Plain Text
Title                       : SDH-Colored
Language                    : English
Default                     : No
Forced                      : No
Menu
00:00:00.000                : en:00:00:00.000
00:06:35.103                : en:00:06:35.103
00:12:12.314                : en:00:12:12.314
00:17:27.671                : en:00:17:27.671
00:25:33.365                : en:00:25:33.365
00:31:08.366                : en:00:31:08.366
00:35:45.768                : en:00:35:45.768
00:41:42.458                : en:00:41:42.458
00:47:39.940                : en:00:47:39.940
00:53:04.431                : en:00:53:04.431
01:01:10.124                : en:01:01:10.124
01:08:16.926                : en:01:08:16.926
01:14:54.031                : en:01:14:54.031
01:24:22.557                : en:01:24:22.557
01:28:53.661                : en:01:28:53.661
01:38:43.584                : en:01:38:43.584
01:52:17.480                : en:01:52:17.480

.torrent yuklash

Yuqori tezlikda va bepul ko‘chirish!

Qanday yuklab olinadi? · Torrent nima o‘zi? · Reyting va cheklovlar

Profil ShX

Tulkin

Jins:
Yigit
Staj:
1 yil 11 oy
Xabarlar:
54

Qayerdan: Kumkurgan

Taqiq:

nima uchun skachat chiqmayapti

Mavzu yaratish 03-May-2019 22:49 (2 soat 23 daqiqa o‘tgach)

Iqitibos

Profil ShX

AxeL

Jins:
Yigit
Staj:
1 yil 8 oy
Xabarlar:
756

Qayerdan: Gronland, Norway

Taqiq:

Tulkin, bu reliz VIP tizimidagi foydalanuvchilar uchun, VIP ga o'tishni tavsiya qilaman

Mavzu yaratish 03-May-2019 22:51 (2 daqiqa o‘tgach)

Iqitibos

Profil ShX
Xabarlarni ko‘rsatish:    

Hozirgi vaqt: 09-Dek 20:54

Vaqtlar farqi: UTC + 5



Siz mavzu yaratishingiz mumkin emas
Siz xabarlarga javob qaytarishingiz mumkin emas
Siz o‘z xabarlaringizni tahrirlashingiz mumkin emas
Siz o‘z xabarlaringizni o‘chirishingiz mumkin emas
Siz so‘rovlarda ovoz berishingiz mumkin emas
Siz xabalarga fayllarni biriktirishingiz mumkin emas
Siz fayllarni ko‘chirishingiz mumkin emas