˂
˃
Tarqatmalar statistikasi
Ko‘chirmoqdaman: [ 2 ]
Ko‘chirib bo‘ldim: [ 1 ]
 
     
 
 

bekastar ®

Jins:
Yigit
Staj:
1 yil 6 oy
Xabarlar:
35

Qayerdan: Samarqand

Taqiq:

--Vasiyat | Васият- Chiqqan yili: 2018
Davlat: O'zbekiston
Janri: Oilaviy, dramma
Davomiyligi: 01:43:35
Tarjima: Talab etilmaydi-Rejissiyor: Said Muxtor-Sеnariy: Nodir Tojixujayev, Said Muxtor, Dilfuza Turaxujayeva
Prodyusеr: Nodir Tojixujayev
Tasvirchi: Tal'at Mansurov
Bastakor: Habibullo Muhammadnazar
Rassom: Qudratullo Dadajonov-Rollarda: Javohir Zokirov, Dilnoza Kubayeva, Ulug'bek Qodirov, Ubaydullo Omon, Zarina Nizomutdinova, Said Muxtor, Luiza Rasulova, Shaxzod Sultonov, Sitora farmonova-Tavsif: Siz kutgan shov shuvga sabab bo'lgan "Vasiyat" filmi bugun saytimizda. Kinoni ko'rib o'zingizni fikringizni izohga qoldiring!-Sifat: WEBRip1080
Format: MP4
Video kodek: MPEG4
Audio kodek: AAC
Video: H.264/AVC 1920x1080 / 29.976fps / 2442 kb/s
Audio: AAC / 44100Hz stereo / 126 / Kbps

Media Info

Общее
Полное имя                               : D:\Новая папка\Vasiyat.mp4
Формат                                   : MPEG-4
Профиль формата                          : Base Media
Идентификатор кодека                     : isom (isom/iso2/avc1/mp41)
Размер файла                             : 1,86 Гбайт
Продолжительность                        : 1 ч. 43 м.
Общий поток                              : 2576 Кбит/сек
Программа кодирования                    : Lavf57.2.100
Видео
Идентификатор                            : 1
Формат                                   : AVC
Формат/Информация                        : Advanced Video Codec
Профиль формата                          : High@L4
Настройки формата                        : CABAC / 3 Ref Frames
Параметр CABAC формата                   : Да
Параметр RefFrames формата               : 3 кадра
Идентификатор кодека                     : avc1
Идентификатор кодека/Информация          : Advanced Video Coding
Продолжительность                        : 1 ч. 43 м.
Битрейт                                  : 2442 Кбит/сек
Ширина                                   : 1920 пикселей
Высота                                   : 1080 пикселей
Соотношение сторон                       : 16:9
Режим частоты кадров                     : Постоянный
Частота кадров                           : 25,000 кадров/сек
Цветовое пространство                    : YUV
Субдискретизация насыщенности            : 4:2:0
Битовая глубина                          : 8 бит
Тип развёртки                            : Прогрессивная
Бит/(Пиксели*Кадры)                      : 0.047
Размер потока                            : 1,77 Гбайт (95%)
Цветовой диапазон                        : Limited
Основные цвета                           : BT.709
Характеристики трансфера                 : BT.709
Коэффициенты матрицы                     : BT.709
Codec configuration box                  : avcC
Аудио
Идентификатор                            : 2
Формат                                   : AAC LC
Формат/Информация                        : Advanced Audio Codec Low Complexity
Идентификатор кодека                     : mp4a-40-2
Продолжительность                        : 1 ч. 43 м.
Вид битрейта                             : Постоянный
Битрейт                                  : 128 Кбит/сек
Каналы                                   : 2 канала
Channel layout                           : L R
Частота                                  : 44,1 КГц
Частота кадров                           : 43,066 кадра/сек (1024 SPF)
Метод сжатия                             : С потерями
Размер потока                            : 94,8 Мбайт (5%)
Язык                                     : English
Default                                  : Да
AlternateGroup/String                    : 1
-LAVHALAR--
.torrent yuklash

Yuqori tezlikda va bepul ko‘chirish!

Qanday yuklab olinadi? · Torrent nima o‘zi? · Reyting va cheklovlar

Profil ShX

atadjanov11

Jins:
Ko‘rsatilmagan
Staj:
1 yil 11 oy
Xabarlar:
7
Taqiq:

Dayte skorost pls

Mavzu yaratish 31-May-2019 04:22 (27 kun o‘tgach)

Iqitibos

Profil ShX

farrux1981

Jins:
Yigit
Staj:
6 oy 12 kun
Xabarlar:
37
Taqiq:

Iltimos chiqib ketmangizlar

Mavzu yaratish 20-Iyun-2019 10:47 (20 kun o‘tgach)

Iqitibos

Profil ShX

farrux1981

Jins:
Yigit
Staj:
6 oy 12 kun
Xabarlar:
37
Taqiq:

Iltimos chiqib ketmangizlar

Mavzu yaratish 24-Iyun-2019 13:55 (4 kun o‘tgach)

Iqitibos

Profil ShX

farrux1981

Jins:
Yigit
Staj:
6 oy 12 kun
Xabarlar:
37
Taqiq:

Iltimos tarqatingizlar

Mavzu yaratish 25-Iyun-2019 10:00 (20 soat o‘tgach)

Iqitibos

Profil ShX
Xabarlarni ko‘rsatish:    

Hozirgi vaqt: 09-Dek 20:11

Vaqtlar farqi: UTC + 5



Siz mavzu yaratishingiz mumkin emas
Siz xabarlarga javob qaytarishingiz mumkin emas
Siz o‘z xabarlaringizni tahrirlashingiz mumkin emas
Siz o‘z xabarlaringizni o‘chirishingiz mumkin emas
Siz so‘rovlarda ovoz berishingiz mumkin emas
Siz xabalarga fayllarni biriktirishingiz mumkin emas
Siz fayllarni ko‘chirishingiz mumkin emas