˂
˃
Tarqatmalar statistikasi
Ko‘chirmoqdaman: [ 5 ]
Ko‘chirib bo‘ldim: [ 17 ]
 
     
 
 

MRLG ®

Jins:
Yigit
Staj:
2 yil 1 oy
Xabarlar:
618
Taqiq:

Burgut / Орел Девятого легиона / The Eagle- Chiqqan yili: 2010
Davlat: AQSH
Janr: drama, tarix
Davomiyligi: 01:54:09
Tarjima: Yoshlar + Rus dublyaji (Litsenziya)
Subtitrlar: Rus + Eng-Rejissiyor: Kevin Makdonald / Kevin Macdonald
Rollarda: Chenning Tatum, Djeymi Bell, Donald Sazerlend, Mark Strong, Dekin Metyuz, Ishtvan Gyoz, Bense Geryo, Denis OʻXer, Pol Ritter, Jolt Laslo, Djulian Lyuis Djons, Aladar Laklot-Film haqida: Bizning eramizning II asri. Rimdan Britaniya oroliga kelgan yosh senturion Markus Akila 20 yil avval yo`qolgan, otasi boshqargan... afsonaviy To`qqizinchi legionni izlash uchun Shotlandiya tog`lariga jo`naydi. Qahramonimiz yo`lida yovvoyi qabilalar va kutilmagan xavflar turibdi, ammo u har qanday vaziyatda ham Rim askarlarining izini topishi va legionning asosiy ramzi - To`qqizinchisi burgutini qutqarishi kerak.-КиноПоиск: 6.792 (36 101)
IMDb: 6.20 (61 109)-Sifat: BDRip-AVC
Format: MKV
Video: AVC, 1040x440, ~2755 kbps, 23,976 fps
Audio №1: MP3, 48 kHz, 128 kbps, 2 ch | UZB |
Audio №2: AC3, 48 kHz, 448 kbps, 6 ch | RUS |
Audio №3: AC3, 48 kHz, 448 kbps, 6 ch | ENG |-

MediaInfo

General
Unique ID : 196440851481777682877129949235540286119 (0x93C921BEC1BF32AA8E42958C000A5AA7)
Complete name : D:\Кино\Дубляж фильмлар\HD Films Collection\Burgut.2011.BDRip-AVC.-[MRLG].mkv
Format : Matroska
Format version : Version 2
File size : 3.01 GiB
Duration : 1 h 54 min
Overall bit rate : 3 780 kb/s
Movie name : Orel Devyatogo Legiona / UNRATED / 2011 / Release by Vaippp / HQ-ViDEO
Encoded date : UTC 2019-04-14 12:02:16
Writing application : mkvmerge v7.8.0 ('River Man') 32bit built on Apr 3 2015 12:11:22
Writing library : libebml v1.3.1 + libmatroska v1.4.2
Video
ID : 1
Format : AVC
Format/Info : Advanced Video Codec
Format profile : High@L4.1
Format settings, CABAC : Yes
Format settings, ReFrames : 8 frames
Codec ID : V_MPEG4/ISO/AVC
Duration : 1 h 54 min
Bit rate : 2 755 kb/s
Width : 1 040 pixels
Height : 440 pixels
Display aspect ratio : 2.35:1
Frame rate mode : Constant
Frame rate : 23.976 (24000/1001) FPS
Color space : YUV
Chroma subsampling : 4:2:0
Bit depth : 8 bits
Scan type : Progressive
Bits/(Pixel*Frame) : 0.251
Stream size : 2.14 GiB (71%)
Title : BDRip 07/07/2011
Writing library : x264 core 115 r1995 c1e60b9
Encoding settings : cabac=1 / ref=8 / deblock=1:-2:-1 / analyse=0x3:0x133 / me=umh / subme=10 / psy=1 / psy_rd=1.05:0.05 / mixed_ref=1 / me_range=32 / chroma_me=1 / trellis=2 / 8x8dct=1 / cqm=0 / deadzone=21,11 / fast_pskip=0 / chroma_qp_offset=-3 / threads=12 / sliced_threads=0 / nr=0 / decimate=0 / interlaced=0 / bluray_compat=0 / constrained_intra=0 / bframes=8 / b_pyramid=2 / b_adapt=2 / b_bias=0 / direct=3 / weightb=1 / open_gop=0 / weightp=2 / keyint=250 / keyint_min=23 / scenecut=40 / intra_refresh=0 / rc_lookahead=60 / rc=2pass / mbtree=1 / bitrate=2755 / ratetol=1.0 / qcomp=0.70 / qpmin=1 / qpmax=63 / qpstep=4 / cplxblur=20.0 / qblur=0.5 / vbv_maxrate=50000 / vbv_bufsize=62500 / nal_hrd=none / ip_ratio=1.40 / aq=2:0.80
Language : English
Default : Yes
Forced : No
Color range : Limited
Matrix coefficients : BT.709
Audio #1
ID : 2
Format : MPEG Audio
Format version : Version 1
Format profile : Layer 3
Mode : Joint stereo
Mode extension : MS Stereo
Codec ID : A_MPEG/L3
Codec ID/Hint : MP3
Duration : 1 h 54 min
Bit rate mode : Constant
Bit rate : 128 kb/s
Channel(s) : 2 channels
Sampling rate : 48.0 kHz
Compression mode : Lossy
Stream size : 105 MiB (3%)
Title : Yoshlar | MRLG
Writing library : LAME3.100Є
Language : Uzbek
Default : Yes
Forced : Yes
Audio #2
ID : 3
Format : AC-3
Format/Info : Audio Coding 3
Mode extension : CM (complete main)
Format settings, Endianness : Big
Codec ID : A_AC3
Duration : 1 h 54 min
Bit rate mode : Constant
Bit rate : 448 kb/s
Channel(s) : 6 channels
Channel positions : Front: L C R, Side: L R, LFE
Sampling rate : 48.0 kHz
Frame rate : 31.250 FPS (1536 spf)
Compression mode : Lossy
Stream size : 366 MiB (12%)
Title : DUB
Language : Russian
Default : No
Forced : No
Audio #3
ID : 4
Format : AC-3
Format/Info : Audio Coding 3
Mode extension : CM (complete main)
Format settings, Endianness : Big
Codec ID : A_AC3
Duration : 1 h 54 min
Bit rate mode : Constant
Bit rate : 448 kb/s
Channel(s) : 6 channels
Channel positions : Front: L C R, Side: L R, LFE
Sampling rate : 48.0 kHz
Frame rate : 31.250 FPS (1536 spf)
Compression mode : Lossy
Stream size : 366 MiB (12%)
Title : Original
Language : English
Default : No
Forced : No
Text #1
ID : 5
Format : UTF-8
Codec ID : S_TEXT/UTF8
Codec ID/Info : UTF-8 Plain Text
Language : Russian
Default : No
Forced : No
Text #2
ID : 6
Format : UTF-8
Codec ID : S_TEXT/UTF8
Codec ID/Info : UTF-8 Plain Text
Title : SDH
Language : English
Default : No
Forced : No
Menu
00:00:00.000 : en:00:00:00.000
00:04:52.125 : en:00:04:52.125
00:08:42.897 : en:00:08:42.897
00:14:47.970 : en:00:14:47.970
00:22:29.639 : en:00:22:29.639
00:27:16.760 : en:00:27:16.760
00:32:06.299 : en:00:32:06.299
00:37:39.674 : en:00:37:39.674
00:43:12.339 : en:00:43:12.339
00:50:17.597 : en:00:50:17.597
00:55:47.010 : en:00:55:47.010
01:02:08.641 : en:01:02:08.641
01:05:25.337 : en:01:05:25.337
01:11:17.773 : en:01:11:17.773
01:16:07.187 : en:01:16:07.187
01:21:41.187 : en:01:21:41.187
01:26:12.000 : en:01:26:12.000
01:34:38.172 : en:01:34:38.172
01:41:39.259 : en:01:41:39.259
01:45:57.809 : en:01:45:57.809
.torrent yuklash

Yuqori tezlikda va bepul ko‘chirish!

Qanday yuklab olinadi? · Torrent nima o‘zi? · Reyting va cheklovlar

Profil ShX
Xabarlarni ko‘rsatish:    

Hozirgi vaqt: 15-Okt 18:19

Vaqtlar farqi: UTC + 5



Siz mavzu yaratishingiz mumkin emas
Siz xabarlarga javob qaytarishingiz mumkin emas
Siz o‘z xabarlaringizni tahrirlashingiz mumkin emas
Siz o‘z xabarlaringizni o‘chirishingiz mumkin emas
Siz so‘rovlarda ovoz berishingiz mumkin emas
Siz xabalarga fayllarni biriktirishingiz mumkin emas
Siz fayllarni ko‘chirishingiz mumkin emas