˂
˃
Tarqatmalar statistikasi
Ko‘chirmoqdaman: [ 4 ]
Ko‘chirib bo‘ldim: [ 12 ]
 
     
 
 

MRLG ®

Jins:
Yigit
Staj:
2 yil 1 oy
Xabarlar:
618
Taqiq:

Tarmoqdagi tuzoq
Кто я
Who Am I - Kein System ist sicher

«Har kim ko'rishni xohlagani ko'radi»
Chiqqan yili: 2014
Davlat: Germaniya
Janr: triller
Davomiyligi: 01:41:47
Tarjima #1: Ko'p ovozli kadr ortidan (MY5);
Tarjima #2: To'liq rus dublyaji (Litsenziya);-Rejissiyor: Baran bo Odar | Baran bo Odar-Rollarda: Tom Shilling, Elias EmBarek, Votan Vilke Myoring, Antuan Mono ml., Xanna Xersshprung, Shtefan Kampvirt, Trine Dyurxolm, Leopold Xornung, Katarina Mats, Leonxard Karov-Tavsif: Benjamin - yosh kompyuter dahosi. U yoshligidan komikslardagi super qahramon bo`lishni va dunyoni zabt etishni orzu qilardi. Lekin real hayotda u - Hech kim. U o`zining butkul qarama - qarshi - Maks ismli jo'shqin yigitni uchratganidan so`ng, uning hayoti to`satdan o`zgaradi. Hayotning qattiq tartibiga yashashni xohlamay, ular qator kiber jinoyatga qo`l urishadi. Jamiyatning beparvoligiga qarshi turishadi, ular yosh avlodning sevimli insonlariga aylanishadi. Endi Benjamin oddiy super qahramon emas, u - dunyodagi qidirlayotgan hakerga aylanadi. Lekin reallikdagi zidlikga botganidan keyin, uni nimalar kutmoqda? Aslida u kim?…- -Sifat: BDRip-AVC
Format: MKV
Video: AVC (H264) 1280x536 25fps
Audio #1: MP3 48000Hz stereo 128kbps | MY5
Audio #2: Dolby AC3 48000Hz 6ch 448kbps | Rus | Litsenziya
Audio #3: Dolby AC3 48000Hz 6ch 448kbps | Ger | Original
Subtitrlar: Ger

Media Info

General
Unique ID                   : 208550463083667029522239484871106623401 (0x9CE55BB17AA54743B61EADFDAC6BF7A9)
Complete name               : D:\Кино\Дубляж фильмлар\HD Films Collection\Tarmoqdagi.Tuzoq.2014.BDRip-AVC.-[MRLG].mkv
Format                      : Matroska
Format version              : Version 2
File size                   : 3.00 GiB
Duration                    : 1 h 41 min
Overall bit rate            : 4 226 kb/s
Movie name                  : Кто я / Who Am I - Kein System ist sicher (2014)
Encoded date                : UTC 2019-04-16 06:03:21
Writing application         : mkvmerge v7.8.0 ('River Man') 32bit built on Apr  3 2015 12:11:22
Writing library             : libebml v1.3.1 + libmatroska v1.4.2
Video
ID                          : 1
Format                      : AVC
Format/Info                 : Advanced Video Codec
Format profile              : High@L4.1
Format settings             : CABAC / 10 Ref Frames
Format settings, CABAC      : Yes
Format settings, ReFrames   : 10 frames
Codec ID                    : V_MPEG4/ISO/AVC
Duration                    : 1 h 41 min
Bit rate                    : 3 200 kb/s
Width                       : 1 280 pixels
Height                      : 536 pixels
Display aspect ratio        : 2.40:1
Frame rate mode             : Constant
Frame rate                  : 25.000 FPS
Color space                 : YUV
Chroma subsampling          : 4:2:0
Bit depth                   : 8 bits
Scan type                   : Progressive
Bits/(Pixel*Frame)          : 0.187
Stream size                 : 2.22 GiB (74%)
Title                       : Release by AlexKa
Writing library             : x264 core 148 r2579 73ae2d1
Encoding settings           : cabac=1 / ref=10 / deblock=1:-3:-3 / analyse=0x3:0x133 / me=umh / subme=11 / psy=1 / psy_rd=1.00:0.00 / mixed_ref=1 / me_range=32 / chroma_me=1 / trellis=2 / 8x8dct=1 / cqm=0 / deadzone=21,11 / fast_pskip=0 / chroma_qp_offset=-2 / threads=12 / lookahead_threads=3 / sliced_threads=0 / nr=0 / decimate=0 / interlaced=0 / bluray_compat=0 / constrained_intra=0 / bframes=13 / b_pyramid=2 / b_adapt=2 / b_bias=0 / direct=3 / weightb=1 / open_gop=0 / weightp=2 / keyint=250 / keyint_min=25 / scenecut=40 / intra_refresh=0 / rc=2pass / mbtree=0 / bitrate=3200 / ratetol=1.0 / qcomp=0.60 / qpmin=0 / qpmax=69 / qpstep=4 / cplxblur=20.0 / qblur=0.5 / ip_ratio=1.40 / pb_ratio=1.30 / aq=1:0.70
Language                    : German
Default                     : Yes
Forced                      : No
Statistics Tags Issue       : mkvmerge v7.7.0 ('Six Voices') 64bit built on Feb 28 2015 23:39:33 2015-09-14 09:41:24 / mkvmerge v7.8.0 ('River Man') 32bit built on Apr  3 2015 12:11:22 2019-04-16 06:03:21
FromStats_BitRate           : 3199517
FromStats_Duration          : 01:41:47.040000000
FromStats_FrameCount        : 152676
FromStats_StreamSize        : 2442447951
Audio #1
ID                          : 2
Format                      : MPEG Audio
Format version              : Version 1
Format profile              : Layer 3
Format settings             : Joint stereo / MS Stereo
Codec ID                    : A_MPEG/L3
Codec ID/Hint               : MP3
Duration                    : 1 h 41 min
Bit rate mode               : Constant
Bit rate                    : 128 kb/s
Channel(s)                  : 2 channels
Sampling rate               : 48.0 kHz
Frame rate                  : 41.667 FPS (1152 SPF)
Compression mode            : Lossy
Stream size                 : 93.2 MiB (3%)
Title                       : MY5 | MRLG
Writing library             : LAME3.100
Encoding settings           : -m j -V 4 -q 2 -lowpass 17 -b 128
Language                    : Uzbek
Default                     : Yes
Forced                      : No
Audio #2
ID                          : 3
Format                      : AC-3
Format/Info                 : Audio Coding 3
Commercial name             : Dolby Digital
Codec ID                    : A_AC3
Duration                    : 1 h 41 min
Bit rate mode               : Constant
Bit rate                    : 448 kb/s
Channel(s)                  : 6 channels
Channel layout              : L R C LFE Ls Rs
Sampling rate               : 48.0 kHz
Frame rate                  : 31.250 FPS (1536 SPF)
Bit depth                   : 16 bits
Compression mode            : Lossy
Stream size                 : 326 MiB (11%)
Title                       : Rus | Лицензия
Language                    : Russian
Service kind                : Complete Main
Default                     : No
Forced                      : No
Statistics Tags Issue       : mkvmerge v7.7.0 ('Six Voices') 64bit built on Feb 28 2015 23:39:33 2015-09-14 09:41:24 / mkvmerge v7.8.0 ('River Man') 32bit built on Apr  3 2015 12:11:22 2019-04-16 06:03:21
FromStats_BitRate           : 448000
FromStats_Duration          : 01:41:47.040000000
FromStats_FrameCount        : 190845
FromStats_StreamSize        : 341994240
Audio #3
ID                          : 4
Format                      : AC-3
Format/Info                 : Audio Coding 3
Commercial name             : Dolby Digital
Codec ID                    : A_AC3
Duration                    : 1 h 41 min
Bit rate mode               : Constant
Bit rate                    : 448 kb/s
Channel(s)                  : 6 channels
Channel layout              : L R C LFE Ls Rs
Sampling rate               : 48.0 kHz
Frame rate                  : 31.250 FPS (1536 SPF)
Bit depth                   : 16 bits
Compression mode            : Lossy
Stream size                 : 326 MiB (11%)
Title                       : Ger | Original
Language                    : German
Service kind                : Complete Main
Default                     : No
Forced                      : No
Statistics Tags Issue       : mkvmerge v7.7.0 ('Six Voices') 64bit built on Feb 28 2015 23:39:33 2015-09-14 09:41:24 / mkvmerge v7.8.0 ('River Man') 32bit built on Apr  3 2015 12:11:22 2019-04-16 06:03:21
FromStats_BitRate           : 448000
FromStats_Duration          : 01:41:47.040000000
FromStats_FrameCount        : 190845
FromStats_StreamSize        : 341994240
Text
ID                          : 5
Format                      : UTF-8
Codec ID                    : S_TEXT/UTF8
Codec ID/Info               : UTF-8 Plain Text
Title                       : Ger
Language                    : German
Default                     : No
Forced                      : No
Statistics Tags Issue       : mkvmerge v7.7.0 ('Six Voices') 64bit built on Feb 28 2015 23:39:33 2015-09-14 09:41:24 / mkvmerge v7.8.0 ('River Man') 32bit built on Apr  3 2015 12:11:22 2019-04-16 06:03:21
FromStats_BitRate           : 59
FromStats_Duration          : 01:37:24.079000000
FromStats_FrameCount        : 1106
FromStats_StreamSize        : 43582
Menu
00:00:00.000                : :Chapter 01
00:05:00.000                : :Chapter 02
00:10:00.000                : :Chapter 03
00:15:00.000                : :Chapter 04
00:20:00.000                : :Chapter 05
00:25:00.000                : :Chapter 06
00:30:00.000                : :Chapter 07
00:35:00.000                : :Chapter 08
00:40:00.000                : :Chapter 09
00:45:00.000                : :Chapter 10
00:50:00.000                : :Chapter 11
00:55:00.000                : :Chapter 12
01:00:00.000                : :Chapter 13
01:05:00.000                : :Chapter 14
01:10:00.000                : :Chapter 15
01:15:00.000                : :Chapter 16
01:20:00.000                : :Chapter 17
01:25:00.000                : :Chapter 18
01:30:00.000                : :Chapter 19
01:35:00.000                : :Chapter 20
01:40:00.000                : :Chapter 21

Miniatyura


.torrent yuklash

Yuqori tezlikda va bepul ko‘chirish!

Qanday yuklab olinadi? · Torrent nima o‘zi? · Reyting va cheklovlar

Profil ShX

Qorbobo

Jins:
Ko‘rsatilmagan
Staj:
8 oy 9 kun
Xabarlar:
17
Taqiq:

Torrent fayli qayerda buni?

Mavzu yaratish 07-May-2019 07:01 (4 kun o‘tgach)

Iqitibos

Profil ShX

KILLER_89-10

Jins:
Yigit
Staj:
1 yil 6 oy
Xabarlar:
34
Taqiq:

8165Torrent fayli qayerda buni?
http://uztracker.net/vip_list.php

Mavzu yaratish 07-May-2019 07:44 (43 daqiqa o‘tgach)

Iqitibos

Profil ShX
Xabarlarni ko‘rsatish:    

Hozirgi vaqt: 15-Okt 18:57

Vaqtlar farqi: UTC + 5



Siz mavzu yaratishingiz mumkin emas
Siz xabarlarga javob qaytarishingiz mumkin emas
Siz o‘z xabarlaringizni tahrirlashingiz mumkin emas
Siz o‘z xabarlaringizni o‘chirishingiz mumkin emas
Siz so‘rovlarda ovoz berishingiz mumkin emas
Siz xabalarga fayllarni biriktirishingiz mumkin emas
Siz fayllarni ko‘chirishingiz mumkin emas