˂
˃
Tarqatmalar statistikasi
Yoʻq
 
     
 
 

MRLG ®

Jins:
Yigit
Staj:
2 yil 3 oy
Xabarlar:
619
Taqiq:

Qasos o'ti / Жажда смерти / Death Wish
Chiqqan yili: 2018
Davlat: AQSH
Janr: Jangari, triller, kriminal
Davomiyligi: 01:46:43
Tarjima: Professional ko'p ovozli [MilliyTV | MY5]
Rejissiyor: Elay Rot / Eli Roth-Rollarda: Bryus Uillis, Vinsent DʻOnofrio, Elizabet Shu, Kamila Morrone, Din Norris, Bo Napp, Kimberli Eliz, Len Kariu, Djek Kesi, Ronni Djin Blevins-Film haqida: Pol Kyorsi - jinoiy janjalardan so'ng odamlarni narigi dunyodan qaytarishga odatlangan xirurg. Lekin uning hotini va qizi ko'cha bezorilari qurboniga aylanishganidan so'ng, politsiya esa harakat qilmaydi, shunda u jazolash uchun adolat qilichini qo'liga oladi. Aholi o'rtasida esa endilikda butun shahar unga tegishli, qo'lga tushmas qasoskor haqida mish-mishlar tarqaladi. U tetiklik, xursandchilik va did bilan qasos oladi.- -Sifat: BDRip-AVC
Format: mkv
Video: MPEG-4 AVC, 1024x426 (2.40:1), 23.976 fps, 1520 Kbps, 0.145 bit/pixel
Audio 1: 48 kHz, MP3, 2.0, 128 Kbps | MilliyTV
Audio 2: 48 kHz, MP3, 2.0, 128 Kbps | MY5

Miniatyura

Media Info

General
Unique ID                   : 175159970123023936569483844543415668635 (0x83C695496F8CF75599292E2AEE114F9B)
Complete name               : D:\Кино\Дубляж фильмлар\HD Films Collection\Death.Wish.2018.BDRip.AVC.-[MRLG].mkv
Format                      : Matroska
Format version              : Version 2
File size                   : 1.33 GiB
Duration                    : 1 h 46 min
Overall bit rate            : 1 778 kb/s
Movie name                  : Death Wish 2018 from ExKinoRay
Encoded date                : UTC 2019-04-26 13:55:44
Writing application         : mkvmerge v7.8.0 ('River Man') 32bit built on Apr  3 2015 12:11:22
Writing library             : libebml v1.3.1 + libmatroska v1.4.2
Video
ID                          : 1
Format                      : AVC
Format/Info                 : Advanced Video Codec
Format profile              : High@L4.1
Format settings             : CABAC / 12 Ref Frames
Format settings, CABAC      : Yes
Format settings, ReFrames   : 12 frames
Codec ID                    : V_MPEG4/ISO/AVC
Duration                    : 1 h 46 min
Bit rate                    : 1 520 kb/s
Width                       : 1 024 pixels
Height                      : 426 pixels
Display aspect ratio        : 2.40:1
Frame rate mode             : Constant
Frame rate                  : 23.976 (23976/1000) FPS
Color space                 : YUV
Chroma subsampling          : 4:2:0
Bit depth                   : 8 bits
Scan type                   : Progressive
Bits/(Pixel*Frame)          : 0.145
Stream size                 : 1.11 GiB (84%)
Title                       : Enigma
Writing library             : x264 core 152 r2851 ba24899
Encoding settings           : cabac=1 / ref=12 / deblock=1:-3:-3 / analyse=0x3:0x113 / me=umh / subme=10 / psy=1 / psy_rd=1.05:0.10 / mixed_ref=1 / me_range=32 / chroma_me=1 / trellis=2 / 8x8dct=1 / cqm=0 / deadzone=21,11 / fast_pskip=0 / chroma_qp_offset=-3 / threads=12 / lookahead_threads=3 / sliced_threads=0 / nr=0 / decimate=0 / interlaced=0 / bluray_compat=0 / constrained_intra=0 / bframes=14 / b_pyramid=2 / b_adapt=2 / b_bias=0 / direct=3 / weightb=1 / open_gop=0 / weightp=2 / keyint=240 / keyint_min=23 / scenecut=40 / intra_refresh=0 / rc_lookahead=40 / rc=2pass / mbtree=0 / bitrate=1520 / ratetol=1.0 / qcomp=0.65 / qpmin=0 / qpmax=51 / qpstep=4 / cplxblur=20.0 / qblur=0.5 / vbv_maxrate=50000 / vbv_bufsize=62500 / nal_hrd=none / filler=0 / ip_ratio=1.40 / pb_ratio=1.30 / aq=2:0.90
Language                    : English
Default                     : Yes
Forced                      : No
Color range                 : Limited
Color primaries             : BT.709
Transfer characteristics    : BT.709
Matrix coefficients         : BT.709
Audio #1
ID                          : 2
Format                      : MPEG Audio
Format version              : Version 1
Format profile              : Layer 3
Format settings             : Joint stereo
Codec ID                    : A_MPEG/L3
Codec ID/Hint               : MP3
Duration                    : 1 h 46 min
Bit rate mode               : Constant
Bit rate                    : 128 kb/s
Channel(s)                  : 2 channels
Sampling rate               : 48.0 kHz
Frame rate                  : 41.667 FPS (1152 SPF)
Compression mode            : Lossy
Stream size                 : 97.7 MiB (7%)
Title                       : MilliyTV | MRLG
Writing library             : LAME3.100
Encoding settings           : -m j -V 4 -q 2 -lowpass 17 -b 128
Language                    : Uzbek
Default                     : Yes
Forced                      : No
Audio #2
ID                          : 3
Format                      : MPEG Audio
Format version              : Version 1
Format profile              : Layer 3
Format settings             : Joint stereo
Codec ID                    : A_MPEG/L3
Codec ID/Hint               : MP3
Duration                    : 1 h 46 min
Bit rate mode               : Constant
Bit rate                    : 128 kb/s
Channel(s)                  : 2 channels
Sampling rate               : 48.0 kHz
Frame rate                  : 41.667 FPS (1152 SPF)
Compression mode            : Lossy
Stream size                 : 97.7 MiB (7%)
Title                       : MY5 | MRLG
Writing library             : LAME3.100
Encoding settings           : -m j -V 4 -q 2 -lowpass 17 -b 128
Language                    : Uzbek
Default                     : No
Forced                      : No

Skrinshotlar






.torrent yuklash

Yuqori tezlikda va bepul ko‘chirish!

Qanday yuklab olinadi? · Torrent nima o‘zi? · Reyting va cheklovlar

Profil ShX
Xabarlarni ko‘rsatish:    

Hozirgi vaqt: 09-Dek 21:38

Vaqtlar farqi: UTC + 5



Siz mavzu yaratishingiz mumkin emas
Siz xabarlarga javob qaytarishingiz mumkin emas
Siz o‘z xabarlaringizni tahrirlashingiz mumkin emas
Siz o‘z xabarlaringizni o‘chirishingiz mumkin emas
Siz so‘rovlarda ovoz berishingiz mumkin emas
Siz xabalarga fayllarni biriktirishingiz mumkin emas
Siz fayllarni ko‘chirishingiz mumkin emas