˂
˃
Tarqatmalar statistikasi
Ko‘chirmoqdaman: [ 1 ]
Ko‘chirib bo‘ldim: [ 14 ]
 
     
 
 

MRLG ®

Jins:
Yigit
Staj:
2 yil 1 oy
Xabarlar:
618
Taqiq:

Metro / Метро-
Chiqqan yili: 2012
Davlat: Rossiya
Janr: triller, drama
Davomiyligi: 02:11:44
Tarjima: Professional ko'p ovozli [MY5]-Rejissiyor: Anton Megerdichev / Антон Мегердичев
Rollarda: Sergey Puskepalis, Anatoliy Beliy, Svetlana Xodchenkova, Anfisa Vistingauzen, Aleksey Bardukov, Katerina Shpitsa, Yelena Panova, Stanislav Dujnikov, Kirill Pletnyov, Ivan Makarevich, Vladimir Sterjakov, Mixail Fateyev-Tavsif: Moskva markazida keng miqyosli amalga oshirilayotgan yangi binolar qurilishi, metro tunnellaridan birida ikki stansiyalar orasida yoriq yuzaga keladi. Germetik to'siq buzilishi oqibatida Moskva daryosini suvi tunnelga sharillab oqishi va yuzlab poezd yo'lovchilari to'satdan kelgan suv toshqini ta'sirida qolishini hech kim tasavvur ham qila olmas edi. Suvning g'azabli oqimi nafaqat metro tunnelining qulashi bilan, balki butun shaharning vayron bo'lishiga ham tahdid solmoqda edi.- -Sifat: BDRip-AVC
Format: MKV
Video: AVC, 1024x434, ~1925 kbps, 23,976 fps
Audio №1: MP3, 48 kHz, 128 kbps, 2 ch | Uzbek | MY5
Audio №2: AC3, 48 kHz, 448 kbps, 6 ch | RUS | Original-

Miniatyura

MediaInfo

General
Unique ID : 217042085685192218860768056229080851734 (0xA348C902F47004D8A2F30544DE13E516)
Complete name : D:\Кино\Дубляж фильмлар\HD Films Collection\Metro.2012.BDRip-AVC-[MRLG].mkv
Format : Matroska
Format version : Version 2
File size : 2.30 GiB
Duration : 2 h 11 min
Overall bit rate : 2 503 kb/s
Encoded date : UTC 2019-04-30 06:39:19
Writing application : mkvmerge v7.8.0 ('River Man') 32bit built on Apr 3 2015 12:11:22
Writing library : libebml v1.3.1 + libmatroska v1.4.2
Video
ID : 1
Format : AVC
Format/Info : Advanced Video Codec
Format profile : High@L4.1
Format settings, CABAC : Yes
Format settings, ReFrames : 11 frames
Codec ID : V_MPEG4/ISO/AVC
Duration : 2 h 11 min
Bit rate : 1 925 kb/s
Width : 1 024 pixels
Height : 434 pixels
Display aspect ratio : 2.35:1
Frame rate mode : Constant
Frame rate : 23.976 FPS
Color space : YUV
Chroma subsampling : 4:2:0
Bit depth : 8 bits
Scan type : Progressive
Bits/(Pixel*Frame) : 0.181
Stream size : 1.73 GiB (75%)
Writing library : x264 core 119 r2106 07efeb4
Encoding settings : cabac=1 / ref=11 / deblock=1:-2:-1 / analyse=0x3:0x113 / me=umh / subme=9 / psy=1 / psy_rd=1.00:0.10 / mixed_ref=1 / me_range=32 / chroma_me=1 / trellis=2 / 8x8dct=1 / cqm=0 / deadzone=21,11 / fast_pskip=1 / chroma_qp_offset=-3 / threads=9 / sliced_threads=0 / nr=0 / decimate=1 / interlaced=0 / bluray_compat=0 / constrained_intra=0 / bframes=10 / b_pyramid=2 / b_adapt=2 / b_bias=0 / direct=3 / weightb=1 / open_gop=0 / weightp=2 / keyint=240 / keyint_min=23 / scenecut=40 / intra_refresh=0 / rc_lookahead=80 / rc=2pass / mbtree=1 / bitrate=1925 / ratetol=1.0 / qcomp=0.60 / qpmin=0 / qpmax=69 / qpstep=4 / cplxblur=20.0 / qblur=0.5 / ip_ratio=1.40 / aq=2:0.90
Language : Russian
Default : Yes
Forced : No
Audio #1
ID : 2
Format : MPEG Audio
Format version : Version 1
Format profile : Layer 3
Mode : Joint stereo
Mode extension : MS Stereo
Codec ID : A_MPEG/L3
Codec ID/Hint : MP3
Duration : 2 h 11 min
Bit rate mode : Constant
Bit rate : 128 kb/s
Channel(s) : 2 channels
Sampling rate : 48.0 kHz
Compression mode : Lossy
Stream size : 121 MiB (5%)
Title : MY5 | MRLG
Writing library : LAME3.100Є
Language : Uzbek
Default : Yes
Forced : No
Audio #2
ID : 3
Format : AC-3
Format/Info : Audio Coding 3
Mode extension : CM (complete main)
Format settings, Endianness : Big
Codec ID : A_AC3
Duration : 2 h 11 min
Bit rate mode : Constant
Bit rate : 448 kb/s
Channel(s) : 6 channels
Channel positions : Front: L C R, Side: L R, LFE
Sampling rate : 48.0 kHz
Frame rate : 31.250 FPS (1536 spf)
Compression mode : Lossy
Stream size : 422 MiB (18%)
Title : Оригинал
Language : Russian
Default : No
Forced : No

.torrent yuklash

Yuqori tezlikda va bepul ko‘chirish!

Qanday yuklab olinadi? · Torrent nima o‘zi? · Reyting va cheklovlar

Profil ShX
Xabarlarni ko‘rsatish:    

Hozirgi vaqt: 15-Okt 03:55

Vaqtlar farqi: UTC + 5



Siz mavzu yaratishingiz mumkin emas
Siz xabarlarga javob qaytarishingiz mumkin emas
Siz o‘z xabarlaringizni tahrirlashingiz mumkin emas
Siz o‘z xabarlaringizni o‘chirishingiz mumkin emas
Siz so‘rovlarda ovoz berishingiz mumkin emas
Siz xabalarga fayllarni biriktirishingiz mumkin emas
Siz fayllarni ko‘chirishingiz mumkin emas