˂
˃
Tarqatmalar statistikasi
Ko‘chirmoqdaman: [ 4 ]
Ko‘chirib bo‘ldim: [ 20 ]
 
     
 
 

MRLG ®

Jins:
Yigit
Staj:
2 yil 2 oy
Xabarlar:
618
Taqiq:

Omon qolgan / Уцелевший / Lone Survivor -««Live to Tell the Story»»- -
Chiqqan yili: 2013
Davlat: AQSH
Janr: harbiy, jangari, drama
Davomiyligi: 02:01:21
Tarjima #1: Ko'p ovozli professional tarjima - [MY5]
Tarjima #2: Rus tilida [Litsenziya]
Tarjima #3: Original [Ingliz tilida]
Subtitrlar: Ruscha, Inglizcha (Full), Inglizcha (SDH), Inglizcha (SDH-Colored),- Rejissiyor: Piter Berg / Peter Berg- Rollarda:
-Mark Uolberg (Marcus Luttrell), Teylor Kitch (Michael Murphy), Emil Xirsh (Danny Dietz), Ben Foster (Matt “Axe” Axelson), Erik Bana (Erik Kristensen), Aleksandr Lyudvig (Shane Patton), Ali Suliman (Gulab), Semmi Sheyk (Taraq), Yusuf Azami (Shah), Rich Ting (James Suh), Den Bilzeryan (Healy), Djerri Ferrara (Hasslert)- Film haqida:
2005 - yil, Afg'oniston. Amerikalik mahsus tayyorgarlik ko`rgan askarlar Tolibonlarning taniqli yetakchisi Ahmad Shohni zararsizlantirish bo`yicha topshiriq oladilar. Askarlar tuzoqqa tushib qolgach, tengsiz qirg`inbarot janga kirishadilar.- - Sifat: BDRip-AVC
Format: MKV
Video: AVC, 1032x430 (2.40:1), 1675 kbps, 23,976 fps, 0,157 bpp
Audio №1: Uzbek / MP3 / 2.0 / 48 kHz / 128 kbps /
Audio №2: Ruscha / AC3 / 5.1 / 48 kHz / 448 kbps /
Audio №3: Ingliz / AC3 / 5.1 / 48 kHz / 448 kbps /-

〤 MI hisoboti

General
Unique ID                                : 206276275860180353607197089654719972463 (0x9B2F5D9B35FD4CF0AA68A1CC5F39046F)
Complete name                            : D:\Кино\Tarjima filmlar\Omon.Qolgan.2013.BDRip.x264.-[MRLG].mkv
Format                                   : Matroska
Format version                           : Version 2
File size                                : 2.29 GiB
Duration                                 : 2 h 1 min
Overall bit rate                         : 2 701 kb/s
Movie name                               : HELLYWOOD - rip by potroks
Encoded date                             : UTC 2019-03-26 16:59:14
Writing application                      : mkvmerge v7.8.0 ('River Man') 32bit built on Apr  3 2015 12:11:22
Writing library                          : libebml v1.3.1 + libmatroska v1.4.2
Video
ID                                       : 1
Format                                   : AVC
Format/Info                              : Advanced Video Codec
Format profile                           : High@L4.1
Format settings, CABAC                   : Yes
Format settings, ReFrames                : 10 frames
Codec ID                                 : V_MPEG4/ISO/AVC
Duration                                 : 2 h 1 min
Bit rate                                 : 1 675 kb/s
Width                                    : 1 032 pixels
Height                                   : 430 pixels
Display aspect ratio                     : 2.40:1
Frame rate mode                          : Constant
Frame rate                               : 23.976 FPS
Color space                              : YUV
Chroma subsampling                       : 4:2:0
Bit depth                                : 8 bits
Scan type                                : Progressive
Bits/(Pixel*Frame)                       : 0.157
Stream size                              : 1.38 GiB (60%)
Title                                    : Lone Survivor
Writing library                          : x264 core 130 r2273 b3065e6
Encoding settings                        : cabac=1 / ref=10 / deblock=1:-3:-3 / analyse=0x3:0x133 / me=umh / subme=11 / psy=1 / psy_rd=0.96:0.00 / mixed_ref=1 / me_range=48 / chroma_me=1 / trellis=2 / 8x8dct=1 / cqm=0 / deadzone=21,11 / fast_pskip=0 / chroma_qp_offset=-2 / threads=9 / lookahead_threads=6 / sliced_threads=0 / nr=0 / decimate=0 / interlaced=0 / bluray_compat=0 / constrained_intra=0 / bframes=11 / b_pyramid=2 / b_adapt=2 / b_bias=0 / direct=3 / weightb=1 / open_gop=0 / weightp=2 / keyint=250 / keyint_min=23 / scenecut=40 / intra_refresh=0 / rc_lookahead=60 / rc=2pass / mbtree=0 / bitrate=1675 / ratetol=1.0 / qcomp=0.70 / qpmin=0 / qpmax=69 / qpstep=4 / cplxblur=20.0 / qblur=0.5 / vbv_maxrate=20000 / vbv_bufsize=20000 / nal_hrd=none / ip_ratio=1.35 / pb_ratio=1.25 / aq=1:0.90
Language                                 : English
Default                                  : Yes
Forced                                   : No
Audio #1
ID                                       : 2
Format                                   : MPEG Audio
Format version                           : Version 1
Format profile                           : Layer 3
Mode                                     : Joint stereo
Mode extension                           : MS Stereo
Codec ID                                 : A_MPEG/L3
Codec ID/Hint                            : MP3
Duration                                 : 2 h 1 min
Bit rate mode                            : Constant
Bit rate                                 : 128 kb/s
Channel(s)                               : 2 channels
Sampling rate                            : 48.0 kHz
Compression mode                         : Lossy
Stream size                              : 111 MiB (5%)
Title                                    : MY5 | MRLG
Writing library                          : LAME3.100Є
Language                                 : Uzbek
Default                                  : No
Forced                                   : Yes
Audio #2
ID                                       : 3
Format                                   : AC-3
Format/Info                              : Audio Coding 3
Mode extension                           : CM (complete main)
Format settings, Endianness              : Big
Codec ID                                 : A_AC3
Duration                                 : 2 h 1 min
Bit rate mode                            : Constant
Bit rate                                 : 448 kb/s
Channel(s)                               : 6 channels
Channel positions                        : Front: L C R, Side: L R, LFE
Sampling rate                            : 48.0 kHz
Frame rate                               : 31.250 FPS (1536 spf)
Compression mode                         : Lossy
Stream size                              : 389 MiB (17%)
Title                                    : Dub | DD 5.1 @ 448 kbps - BD RUS
Language                                 : Russian
Default                                  : No
Forced                                   : No
Audio #3
ID                                       : 4
Format                                   : AC-3
Format/Info                              : Audio Coding 3
Mode extension                           : CM (complete main)
Format settings, Endianness              : Big
Codec ID                                 : A_AC3
Duration                                 : 2 h 1 min
Bit rate mode                            : Constant
Bit rate                                 : 448 kb/s
Channel(s)                               : 6 channels
Channel positions                        : Front: L C R, Side: L R, LFE
Sampling rate                            : 48.0 kHz
Frame rate                               : 31.250 FPS (1536 spf)
Compression mode                         : Lossy
Stream size                              : 389 MiB (17%)
Title                                    : Original | DD 5.1 @ 448 kbps
Language                                 : English
Default                                  : No
Forced                                   : No
Text #1
ID                                       : 5
Format                                   : UTF-8
Codec ID                                 : S_TEXT/UTF8
Codec ID/Info                            : UTF-8 Plain Text
Language                                 : Russian
Default                                  : No
Forced                                   : No
Text #2
ID                                       : 6
Format                                   : UTF-8
Codec ID                                 : S_TEXT/UTF8
Codec ID/Info                            : UTF-8 Plain Text
Title                                    : Full
Language                                 : English
Default                                  : No
Forced                                   : No
Text #3
ID                                       : 7
Format                                   : UTF-8
Codec ID                                 : S_TEXT/UTF8
Codec ID/Info                            : UTF-8 Plain Text
Title                                    : SDH
Language                                 : English
Default                                  : No
Forced                                   : No
Text #4
ID                                       : 8
Format                                   : UTF-8
Codec ID                                 : S_TEXT/UTF8
Codec ID/Info                            : UTF-8 Plain Text
Title                                    : SDH-Colored
Language                                 : English
Default                                  : No
Forced                                   : No
Menu
00:00:00.000                             : en:00:00:00.000
00:10:36.000                             : en:00:10:36.000
00:15:38.000                             : en:00:15:38.000
00:20:40.000                             : en:00:20:40.000
00:25:41.000                             : en:00:25:41.000
00:30:43.000                             : en:00:30:43.000
00:35:44.000                             : en:00:35:44.000
00:40:45.000                             : en:00:40:45.000
00:45:45.000                             : en:00:45:45.000
00:50:50.000                             : en:00:50:50.000
00:55:57.000                             : en:00:55:57.000
01:01:00.000                             : en:01:01:00.000
01:06:06.000                             : en:01:06:06.000
01:11:07.000                             : en:01:11:07.000
01:16:10.000                             : en:01:16:10.000
01:21:12.000                             : en:01:21:12.000
01:26:13.000                             : en:01:26:13.000
01:31:15.000                             : en:01:31:15.000
01:36:15.000                             : en:01:36:15.000
01:41:16.000                             : en:01:41:16.000
01:46:20.000                             : en:01:46:20.000
01:51:20.000                             : en:01:51:20.000

Miniatyura

LAVHALAR
- © Templated by MRLG
.torrent yuklash

Yuqori tezlikda va bepul ko‘chirish!

Qanday yuklab olinadi? · Torrent nima o‘zi? · Reyting va cheklovlar

Profil ShX

Gr@nd

Jins:
Yigit
Staj:
2 yil
Xabarlar:
170

Qayerdan: Jizzax Forish

Taqiq:

MRLG, Ishlashda charchamang omad

Mavzu yaratish 09-Apr-2019 20:58 (13 daqiqa o‘tgach)

Iqitibos

Profil ShX

AxeL

Jins:
Yigit
Staj:
1 yil 7 oy
Xabarlar:
756

Qayerdan: Gronland, Norway

Taqiq:

daxshat hujumga o'tibdiyu:)

Mavzu yaratish 09-Apr-2019 23:19 (2 soat 20 daqiqa o‘tgach)

Iqitibos

Profil ShX

MRLG ®

Jins:
Yigit
Staj:
2 yil 2 oy
Xabarlar:
618
Taqiq:

7966daxshat hujumga o'tibdiyu:)
Katta aka bo'lgach, ukalarni ham boqish bizni vazifada)))

Mavzu yaratish 10-Apr-2019 08:01 (8 soat o‘tgach)

Iqitibos

Profil ShX
Xabarlarni ko‘rsatish:    

Hozirgi vaqt: 18-Okt 03:35

Vaqtlar farqi: UTC + 5



Siz mavzu yaratishingiz mumkin emas
Siz xabarlarga javob qaytarishingiz mumkin emas
Siz o‘z xabarlaringizni tahrirlashingiz mumkin emas
Siz o‘z xabarlaringizni o‘chirishingiz mumkin emas
Siz so‘rovlarda ovoz berishingiz mumkin emas
Siz xabalarga fayllarni biriktirishingiz mumkin emas
Siz fayllarni ko‘chirishingiz mumkin emas