˂
˃
Tarqatmalar statistikasi
Ko‘chirmoqdaman: [ 5 ]
Ko‘chirib bo‘ldim: [ 12 ]
 
     
 
 

N.U.R.I.K.B.E.K ®

Jins:
Yigit
Staj:
1 yil 11 oy
Xabarlar:
537

Qayerdan: Jizzax. Paxtakor

Taqiq:

--Uch Chegara | Тройная Граница | Triple Frontier- -Chiqqan yili: 2019
Davlat: AQSH
Janr: Jangari, Triller, Drama, Jinoyat, Sarguzasht.
Davomiyligi: 02:05:52
Tarjima 1 Audio Yo'lak: MY5 O'zbek Tilida
Tarjima 2 Audio Yo'lak: Rus Tili--Rejissyor: Jey Si Chendor.--Rollarda: Ben Afflek, Charli Xannem, Adria Arhona, Pedro Paskal, Oskar Ayzek, Garret Hedlund, Sheyla Vand, Reynaldo Galegos, Kristin Horn, Son MaBrayd.--Tavsif: Paragvay, Argentina va Braziliya o'rtasidagi chegara hududi uyushgan jinoyatchilik, giyohvand moddalar savdogarlari va terrorchilar uchun jannat hisoblanadi. Ko'p yillar davomida maxsus guruhlar mintaqani tozalashga harakat qildilar, ammo muvaffaqiyatsiz. Besh nafar operativ xodimlar o'z hamkasblari halok bo'lganini ko'rishdan charchagan va ishni o'z qo'llariga olishga qaror qilishdi. Ular mahalliy narkobaronni talon-taroj qilishni va ikkita qushni bitta tosh bilan o'ldirishni kutmoqdalar-katta moliyalashtirish kartelini mahrum qilish va qulay hayotni ta'minlash.--Videoning sifati: WEB-DLRip
Video format: MKV-Video: Xvid 704x336 24 fps 1 268 kb/s
Audio: MP3 48000Hz stereo 128kbps O'zbek Tili
Audio 2: Dolby AC3 48000Hz 6ch 384kbps Rus Tili--

Media Info

General
Format : Matroska
Format version : Version 4 / Version 2
File size : 1.57 GiB
Duration : 2 h 5 min
Overall bit rate : 1 782 kb/s
Encoded date : UTC 2019-03-21 06:24:01
Writing application : mkvmerge v15.0.0 ('Duel with the Devil') 64-bit
Writing library : libebml v1.3.5 + libmatroska v1.4.5
Video
ID : 1
Format : MPEG-4 Visual
Format profile : Advanced Simple@L5
Format settings, BVOP : 1
Format settings, QPel : No
Format settings, GMC : No warppoints
Format settings, Matrix : Custom
Codec ID : V_MS/VFW/FOURCC / XVID
Codec ID/Hint : XviD
Duration : 2 h 5 min
Bit rate : 1 268 kb/s
Width : 704 pixels
Height : 336 pixels
Display aspect ratio : 2.095
Frame rate mode : Constant
Frame rate : 24.000 FPS
Color space : YUV
Chroma subsampling : 4:2:0
Bit depth : 8 bits
Scan type : Progressive
Compression mode : Lossy
Bits/(Pixel*Frame) : 0.223
Stream size : 1.11 GiB (71%)
Writing library : XviD 73
Default : Yes
Forced : No
Audio #1
ID : 2
Format : MPEG Audio
Format version : Version 1
Format profile : Layer 3
Mode : Joint stereo
Mode extension : MS Stereo
Codec ID : A_MPEG/L3
Codec ID/Hint : MP3
Duration : 2 h 5 min
Bit rate mode : Constant
Bit rate : 128 kb/s
Channel(s) : 2 channels
Sampling rate : 48.0 kHz
Frame rate : 41.667 FPS (1152 SPF)
Compression mode : Lossy
Stream size : 115 MiB (7%)
Title : O'zbek Tili
Language : Uzbek
Default : Yes
Forced : No
Audio #2
ID : 3
Format : AC-3
Format/Info : Audio Coding 3
Format settings, Endianness : Big
Codec ID : A_AC3
Duration : 2 h 5 min
Bit rate mode : Constant
Bit rate : 384 kb/s
Channel(s) : 6 channels
Channel positions : Front: L C R, Side: L R, LFE
Sampling rate : 48.0 kHz
Frame rate : 31.250 FPS (1536 SPF)
Bit depth : 16 bits
Compression mode : Lossy
Stream size : 346 MiB (22%)
Title : Rus Tili
Language : Russian
Service kind : Complete Main
Default : No
Forced : No
LAVHALAR
.torrent yuklash

Yuqori tezlikda va bepul ko‘chirish!

Qanday yuklab olinadi? · Torrent nima o‘zi? · Reyting va cheklovlar

Profil ShX

N.U.R.I.K.B.E.K ®

Jins:
Yigit
Staj:
1 yil 11 oy
Xabarlar:
537

Qayerdan: Jizzax. Paxtakor

Taqiq:

Xar Bir Ko'chiruvchi Rahmat Tugmasini Bosmasa Tarqatmadan To'sibqo'yiladi, Unutmang Sizning Rahmatingiz Reliz Muallifining Mehnatiga Bildirgan Hurmatingizdur.

Mavzu yaratish 21-Mar-2019 12:34 (22 daqiqa o‘tgach)

Iqitibos

Profil ShX

logan7272

Jins:
Yigit
Staj:
1 yil 6 oy
Xabarlar:
73

Qayerdan: Namangan

Taqiq:

N.U.R.I.K.B.E.K, hevc tashlab berardim

Mavzu yaratish 21-Mar-2019 13:40 (1 soat 6 daqiqa o‘tgach)

Iqitibos

Profil ShX

ZAFAR-studio

Jins:
Yigit
Staj:
1 yil 3 oy
Xabarlar:
51

Qayerdan: Хоразм вилояти, Урганч шаҳри, "12-сонли Маъшал" маҳалласидан

Taqiq:

N.U.R.I.K.B.E.K, ассалому алайкум, жуда тўғри гапни айтдингиз, КАТТА РОХМАТ, одамларга хайронсан, Рахматни худди сотиб олаётгандек босишга ва айтишга эринадилар......

Mavzu yaratish 21-Mar-2019 14:18 (37 daqiqa o‘tgach)

Iqitibos

Profil ShX

N.U.R.I.K.B.E.K ®

Jins:
Yigit
Staj:
1 yil 11 oy
Xabarlar:
537

Qayerdan: Jizzax. Paxtakor

Taqiq:

ZAFAR-studio, vaalaykum salom bu sizlar tomondan mavzu yaratganlarga biroz boʻlsada kuch quvvat keyingi relizni yatarishga g'ayrat beradi.

Mavzu yaratish 21-Mar-2019 14:51 (33 daqiqa o‘tgach)

Iqitibos

Profil ShX

dilshod6663

Jins:
Ko‘rsatilmagan
Staj:
1 yil 10 oy
Xabarlar:
78
Taqiq:

N.U.R.I.K.B.E.K Reliz uchun katta raxmat sizdan bundan kiyin xam zur relizlar kutib qolamiz ishizga rivoj. Raxmat tugmasi qani? shu bulikon bulsa bosilmayapti nimagadir.

Mavzu yaratish 21-Mar-2019 23:47 (8 soat o‘tgach)

Iqitibos

Profil ShX

MRLG

Jins:
Yigit
Staj:
2 yil 1 oy
Xabarlar:
618
Taqiq:

7862N.U.R.I.K.B.E.K Reliz uchun katta raxmat sizdan bundan kiyin xam zur relizlar kutib qolamiz ishizga rivoj. Raxmat tugmasi qani? shu bulikon bulsa bosilmayapti nimagadir.

Mavzu yaratish 22-Mar-2019 09:17 (9 soat o‘tgach)

Iqitibos

Profil ShX

dilshod6663

Jins:
Ko‘rsatilmagan
Staj:
1 yil 10 oy
Xabarlar:
78
Taqiq:

Ha shumi sal ekanku men yarim soat izlapmana

Mavzu yaratish 22-Mar-2019 21:07 (11 soat o‘tgach)

Iqitibos

Profil ShX

BoboMUROD

Jins:
Ko‘rsatilmagan
Staj:
2 yil
Xabarlar:
18
Taqiq:

N.U.R.I.K.B.E.K, Salom Bir emas Ming RAHMAT.

Mavzu yaratish 23-Mar-2019 07:04 (9 soat o‘tgach)

Iqitibos

Profil ShX
Xabarlarni ko‘rsatish:    

Hozirgi vaqt: 15-Okt 04:37

Vaqtlar farqi: UTC + 5



Siz mavzu yaratishingiz mumkin emas
Siz xabarlarga javob qaytarishingiz mumkin emas
Siz o‘z xabarlaringizni tahrirlashingiz mumkin emas
Siz o‘z xabarlaringizni o‘chirishingiz mumkin emas
Siz so‘rovlarda ovoz berishingiz mumkin emas
Siz xabalarga fayllarni biriktirishingiz mumkin emas
Siz fayllarni ko‘chirishingiz mumkin emas