˂
˃
Tarqatmalar statistikasi
Ko‘chirmoqdaman: [ 2 ]
Ko‘chirib bo‘ldim: [ 4 ]
 
     
 
 

UmarShoh ®

Jins:
Yigit
Staj:
1 yil 7 oy
Xabarlar:
402
Taqiq:

-Sohibjamol va Mahluq |Красавица и чудовище | Beauty and the Beast- Davlat: AQSH
Janr: Multfilm, Musiqali, Melodramma, Oilaviy.
Chiqqan yili: 1991
Davomiyligi: 01:31:44-Tarjima 1: Professional (dublyaj qilingan) Yoshlar
Tarjima 2: Professional (dublyaj qilingan) Itunes
Subtitrlar: Inglizcha, Ruscha, Fransuzcha, Ispancha, Turkcha, Italyancha, Germancha.-Rejissiyor: Gary Trousdale, Kirk Wise.-Rollarda: Robbi Benson, Jassi Korti, Reks Everhart, Anjela Lensberi, Peyj Ohara, Bredli Pirs, Richart Uayt va boshqalar...-Tavsif: Qorong'i o'rmonda yashiringan sehrli qal'ada dahshatli Maxluq yashaydi. Uning qalbidagi muzni eritib, unga inson shaklini qaytarishga, sehrni olib tashlashga faqatgina uni bor holicha seva oladigan go'zal qiz qodirdir.-Videoning sifati: BDRip 1080p Hevc 10bit
Format: MKV-Video: Hevc, 2525kbps, 1920x1080
Audio #1: AC3, 2 ch, 192kbps | Ruscha
Audio #2: AAC, 8 ch, 395kbps | Inglizcha
Audio #3: AAC, 44100Hz 2ch, 126kbps | O'zbekcha (Yoshlar)

MediaInfo

General
Unique ID : 194819479066334504103033953350893568414 (0x9290DDE9C67853C53D2EA262CD2E019E)
Complete name : D:\Media\Multfilmlar\Multfilmlar\040) Beauty and the Beast [ 1991 BDRip 1080p x265 ] O'zbek tilida.mkv
Format : Matroska
Format version : Version 4 / Version 2
File size : 2.09 GiB
Duration : 1 h 31 min
Overall bit rate : 3 268 kb/s
Movie name : Beauty and the Beast
Encoded date : UTC 2018-09-22 07:25:39
Writing application : mkvmerge v26.0.0 ('In The Game') 64-bit
Writing library : libebml v1.3.6 + libmatroska v1.4.9
Video
ID : 1
Format : HEVC
Format/Info : High Efficiency Video Coding
Format profile : Main 10@L4@Main
Codec ID : V_MPEGH/ISO/HEVC
Duration : 1 h 31 min
Bit rate : 2 525 kb/s
Width : 1 920 pixels
Height : 1 080 pixels
Display aspect ratio : 16:9
Frame rate mode : Constant
Frame rate : 23.976 (24000/1001) FPS
Color space : YUV
Chroma subsampling : 4:2:0
Bit depth : 10 bits
Bits/(Pixel*Frame) : 0.051
Stream size : 1.62 GiB (77%)
Writing library : x265 1.9+200-6098ba3e0cf16b11:[Windows][GCC 5.3.0][64 bit] 10bit
Encoding settings : wpp / ctu=64 / min-cu-size=8 / max-tu-size=32 / tu-intra-depth=1 / tu-inter-depth=1 / me=1 / subme=2 / merange=57 / no-rect / no-amp / max-merge=2 / temporal-mvp / no-early-skip / recursion-skip / rdpenalty=0 / no-tskip / no-tskip-fast / strong-intra-smoothing / no-lossless / no-cu-lossless / no-constrained-intra / no-fast-intra / open-gop / no-temporal-layers / interlace=0 / keyint=250 / min-keyint=23 / scenecut=40 / rc-lookahead=20 / lookahead-slices=6 / bframes=4 / bframe-bias=0 / b-adapt=2 / ref=3 / limit-refs=3 / no-limit-modes / weightp / no-weightb / aq-mode=1 / qg-size=32 / aq-strength=1.00 / cbqpoffs=0 / crqpoffs=0 / rd=3 / psy-rd=2.00 / rdoq-level=0 / psy-rdoq=0.00 / no-rd-refine / signhide / deblock=0:0 / sao / no-sao-non-deblock / b-pyramid / cutree / no-intra-refresh / rc=2 / pass / bitrate=2524 / qcomp=0.60 / qpmin=0 / qpmax=51 / qpstep=4 / cplxblur=20.0 / qblur=0.5 / ipratio=1.40 / pbratio=1.30
Language : English
Default : Yes
Forced : No
Audio #1
ID : 2
Format : AAC LC
Format/Info : Advanced Audio Codec Low Complexity
Codec ID : A_AAC-2
Duration : 1 h 31 min
Bit rate : 395 kb/s
Channel(s) : 8 channels
Channel layout : C L R Ls Rs Rls Rb LFE
Sampling rate : 48.0 kHz
Frame rate : 46.875 FPS (1024 SPF)
Compression mode : Lossy
Delay relative to video : 20 ms
Stream size : 259 MiB (12%)
Title : Orginal
Language : English
Default : No
Forced : No
Audio #2
ID : 7
Format : AC-3
Format/Info : Audio Coding 3
Commercial name : Dolby Digital
Codec ID : A_AC3
Duration : 1 h 31 min
Bit rate mode : Constant
Bit rate : 192 kb/s
Channel(s) : 2 channels
Channel layout : L R
Sampling rate : 48.0 kHz
Frame rate : 31.250 FPS (1536 SPF)
Bit depth : 16 bits
Compression mode : Lossy
Stream size : 126 MiB (6%)
Title : Дублированный
Language : Russian
Service kind : Complete Main
Default : No
Forced : No
Audio #3
ID : 11
Format : AAC LC
Format/Info : Advanced Audio Codec Low Complexity
Codec ID : A_AAC-2
Duration : 1 h 31 min
Bit rate : 126 kb/s
Channel(s) : 2 channels
Channel layout : L R
Sampling rate : 44.1 kHz
Frame rate : 43.066 FPS (1024 SPF)
Compression mode : Lossy
Stream size : 82.4 MiB (4%)
Title : Yoshlar (UmarShoh_Prod)
Language : Uzbek
Default : Yes
Forced : No
Text #1
ID : 3
Format : VobSub
Muxing mode : zlib
Codec ID : S_VOBSUB
Codec ID/Info : Picture based subtitle format used on DVDs
Duration : 1 h 28 min
Bit rate : 11.8 kb/s
Count of elements : 1462
Stream size : 7.52 MiB (0%)
Language : English
Default : No
Forced : No
Text #2
ID : 4
Format : VobSub
Muxing mode : zlib
Codec ID : S_VOBSUB
Codec ID/Info : Picture based subtitle format used on DVDs
Duration : 1 h 30 min
Bit rate : 9 333 b/s
Count of elements : 1205
Stream size : 6.01 MiB (0%)
Language : Italian
Default : No
Forced : No
Text #3
ID : 5
Format : VobSub
Muxing mode : zlib
Codec ID : S_VOBSUB
Codec ID/Info : Picture based subtitle format used on DVDs
Duration : 1 h 30 min
Bit rate : 10.8 kb/s
Count of elements : 1207
Stream size : 6.95 MiB (0%)
Language : German
Default : No
Forced : No
Text #4
ID : 6
Format : VobSub
Muxing mode : zlib
Codec ID : S_VOBSUB
Codec ID/Info : Picture based subtitle format used on DVDs
Duration : 1 h 30 min
Bit rate : 9 392 b/s
Count of elements : 1205
Stream size : 6.05 MiB (0%)
Language : Turkish
Default : No
Forced : No
Text #5
ID : 8
Format : UTF-8
Codec ID : S_TEXT/UTF8
Codec ID/Info : UTF-8 Plain Text
Duration : 1 h 24 min
Bit rate : 105 b/s
Count of elements : 1546
Stream size : 65.7 KiB (0%)
Language : Russian
Default : No
Forced : No
Text #6
ID : 9
Format : UTF-8
Codec ID : S_TEXT/UTF8
Codec ID/Info : UTF-8 Plain Text
Duration : 1 h 24 min
Bit rate : 67 b/s
Count of elements : 1188
Stream size : 41.6 KiB (0%)
Language : French
Default : No
Forced : No
Text #7
ID : 10
Format : UTF-8
Codec ID : S_TEXT/UTF8
Codec ID/Info : UTF-8 Plain Text
Duration : 1 h 30 min
Bit rate : 56 b/s
Count of elements : 1196
Stream size : 37.3 KiB (0%)
Language : Spanish
Default : No
Forced : No
Menu
00:00:00.000 : en:Chapter 01
00:03:19.616 : en:Chapter 02
00:08:24.837 : en:Chapter 03
00:13:50.955 : en:Chapter 04
00:17:34.887 : en:Chapter 05
00:20:53.835 : en:Chapter 06
00:25:34.241 : en:Chapter 07
00:27:04.748 : en:Chapter 08
00:34:58.846 : en:Chapter 09
00:38:28.848 : en:Chapter 10
00:43:50.794 : en:Chapter 11
00:49:25.629 : en:Chapter 12
00:51:59.074 : en:Chapter 13
00:53:59.736 : en:Chapter 14
00:57:26.443 : en:Chapter 15
01:03:07.241 : en:Chapter 16
01:09:42.553 : en:Chapter 17
01:11:28.450 : en:Chapter 18
01:14:22.458 : en:Chapter 19
01:17:15.380 : en:Chapter 20
01:21:48.904 : en:Chapter 21
01:25:59.988 : en:Chapter 22
.torrent yuklash

Yuqori tezlikda va bepul ko‘chirish!

Qanday yuklab olinadi? · Torrent nima o‘zi? · Reyting va cheklovlar

Profil ShX
Xabarlarni ko‘rsatish:    

Hozirgi vaqt: 15-Okt 20:09

Vaqtlar farqi: UTC + 5



Siz mavzu yaratishingiz mumkin emas
Siz xabarlarga javob qaytarishingiz mumkin emas
Siz o‘z xabarlaringizni tahrirlashingiz mumkin emas
Siz o‘z xabarlaringizni o‘chirishingiz mumkin emas
Siz so‘rovlarda ovoz berishingiz mumkin emas
Siz xabalarga fayllarni biriktirishingiz mumkin emas
Siz fayllarni ko‘chirishingiz mumkin emas