˂
˃
Tarqatmalar statistikasi
Ko‘chirmoqdaman: [ 1 ]
Ko‘chirib bo‘ldim: [ 5 ]
 
     
 
 

UmarShoh ®

Jins:
Yigit
Staj:
1 yil 7 oy
Xabarlar:
403
Taqiq:

-Men Yana Qaytdim- -Chiqqan yili: 2012
Davlat: Hindiston
Janr: Fantastika, Dramma, Jangari.
Davomiyligi: 02:13:46
Tarjima: Professional (dublyaj qilingan)
-Rejissyor: S.S.Rajamouli-Rollarda: Nani, Samanta, Sudip, Santxanam, Shrinivasa Rеddi, Aditiya, Dеvadarshini Chеtan, Tagubotu Ramеsh, Abraxim, Xamsa Nandini
-Tavsif: Go'zal va yoqimli odam Nani Samanthaga oshiq bo'lib, unga javoban javob beradi. Lekin bu hikoyada uchinchi - haqiqiy gangster Samantha'ya ko'zlarini tikdi, u o'z xohlagan narsasini olish uchun hech narsa qila olmaydi. U Nani'ni o'ldiradi, ammo o'limdan oldin qasos olishga qasam ichadi. Nani qotilning yonida hech qanday shubhali qizni tashlab ketmaslik va adolatni ta'minlash uchun Nani qayta tug'iladi. Ammo yana bir kishi tug'ilib o'sishi uzoq vaqtni anglatadi va Nani kutmaydi. Va umrining uzunligi 17 kun bo'lgan uyga uchib kelayotgani kabi, u qayta tug'ilishga rozi bo'ladi. 17 kun ichida, hatto chivin bo'lsa ham nima qila olasiz? Banditlar bu haqda to'liq bilib olishadi....
-Videoning sifati: BDRip 1080p HEVC 10 Bit
Video format: MKV
Video: HEVC, 1920x816, 1611kbps, 25fps
Audio : AAC 48000Hz, Mono, 128 kb/s | Hindcha
Audio 2 : MP3, 44100Hz, 128 Kbps, 2ch |O'zbekcha (O'zbekiston)
Subtitrlar: Inglizcha.

Media Info


General
Unique ID : 285539441812386942463829406495946301538 (0xD6D0E568B5F3D57661EADCB81DE3E062)
Complete name : D:\Media\Kinolar\013) Eega [ 2012 Bluray 1080p HEVC ] O'zbek tilida .mkv
Format : Matroska
Format version : Version 4 / Version 2
File size : 1.67 GiB
Duration : 2 h 13 min
Overall bit rate : 1 790 kb/s
Encoded date : UTC 2018-06-12 05:57:17
Writing application : mkvmerge v24.0.0 ('Beyond The Pale') 64-bit
Writing library : libebml v1.3.6 + libmatroska v1.4.9 / Lavf57.25.100
Video
ID : 1
Format : HEVC
Format/Info : High Efficiency Video Coding
Format profile : Main@L4@Main
Codec ID : V_MPEGH/ISO/HEVC
Duration : 2 h 13 min
Bit rate : 1 611 kb/s
Width : 1 920 pixels
Height : 816 pixels
Display aspect ratio : 2.35:1
Frame rate mode : Variable
Frame rate : 24.000 FPS
Original frame rate : 25.000 FPS
Color space : YUV
Chroma subsampling : 4:2:0
Bit depth : 8 bits
Bits/(Pixel*Frame) : 0.043
Stream size : 1.51 GiB (90%)
Writing library : x265 1.9+5-20f14d78dbad:[Linux][GCC 5.2.1][64 bit] 8bit
Encoding settings : wpp / ctu=64 / min-cu-size=8 / max-tu-size=32 / tu-intra-depth=1 / tu-inter-depth=1 / me=1 / subme=2 / merange=57 / no-rect / no-amp / max-merge=2 / temporal-mvp / no-early-skip / rdpenalty=0 / no-tskip / no-tskip-fast / strong-intra-smoothing / no-lossless / no-cu-lossless / no-constrained-intra / no-fast-intra / open-gop / no-temporal-layers / interlace=0 / keyint=250 / min-keyint=25 / scenecut=40 / rc-lookahead=20 / lookahead-slices=5 / bframes=4 / bframe-bias=0 / b-adapt=2 / ref=3 / limit-refs=3 / no-limit-modes / weightp / no-weightb / aq-mode=1 / qg-size=32 / aq-strength=1.00 / cbqpoffs=0 / crqpoffs=0 / rd=3 / psy-rd=2.00 / rdoq-level=0 / psy-rdoq=0.00 / signhide / deblock / sao / no-sao-non-deblock / b-pyramid / cutree / no-intra-refresh / rc=abr / bitrate=1674 / qcomp=0.60 / qpmin=0 / qpmax=51 / qpstep=4 / ipratio=1.40 / pbratio=1.30
Language : English
Default : Yes
Forced : No
Audio #1
ID : 2
Format : AAC
Format/Info : Advanced Audio Codec
Format profile : LC
Codec ID : A_AAC-2
Duration : 2 h 13 min
Bit rate : 48.0 kb/s
Channel(s) : 1 channel
Channel positions : Front: C
Sampling rate : 44.1 kHz
Frame rate : 43.066 FPS (1024 SPF)
Compression mode : Lossy
Stream size : 45.9 MiB (3%)
Title : Ripstracker.com
Writing library : Lavc57.24.102 libfaac
Language : Telugu
Default : No
Forced : No
Audio #2
ID : 4
Format : MPEG Audio
Format version : Version 1
Format profile : Layer 3
Format settings : Joint stereo / MS Stereo
Codec ID : A_MPEG/L3
Codec ID/Hint : MP3
Duration : 2 h 13 min
Bit rate mode : Constant
Bit rate : 128 kb/s
Channel(s) : 2 channels
Sampling rate : 44.1 kHz
Frame rate : 38.281 FPS (1152 SPF)
Compression mode : Lossy
Stream size : 122 MiB (7%)
Title : O'zbekiston (UmarShoh_FL)
Writing library : LAME3.99.5
Language : Uzbek
Default : Yes
Forced : No
Text
ID : 3
Format : ASS
Codec ID : S_TEXT/ASS
Codec ID/Info : Advanced Sub Station Alpha
Duration : 2 h 12 min
Bit rate : 41 b/s
Count of elements : 752
Compression mode : Lossless
Stream size : 40.4 KiB (0%)
Title : English Subs -Ripstracker.com
Writing library : Lavc57.24.102 ass
Language : English
Default : Yes
Forced : No
Menu
00:00:00.000 : :00:00:00.000
00:02:59.000 : :00:02:59.000
00:05:06.417 : :00:05:06.417
00:09:27.625 : :00:09:27.625
00:16:57.000 : :00:16:57.000
00:32:13.625 : :00:32:13.625
00:37:19.625 : :00:37:19.625
00:42:50.625 : :00:42:50.625
00:50:34.000 : :00:50:34.000
00:57:17.625 : :00:57:17.625
01:07:41.000 : :01:07:41.000
01:14:16.417 : :01:14:16.417
01:24:43.000 : :01:24:43.000
01:28:29.000 : :01:28:29.000
01:34:03.000 : :01:34:03.000
01:39:50.000 : :01:39:50.000
01:48:21.417 : :01:48:21.417
01:51:57.000 : :01:51:57.000
02:08:37.625 : :02:08:37.625
02:10:24.000 : :02:10:24.000
.torrent yuklash

Yuqori tezlikda va bepul ko‘chirish!

Qanday yuklab olinadi? · Torrent nima o‘zi? · Reyting va cheklovlar



So‘ngi marta tahrirlandi: UmarShoh (2019-08-13 08:35), Jami tahrirlangan 4 marta
Profil ShX

Topik Vaqtincha tarqatmalar forumidan HEVC Kinofilmlar ga ko‘chirildi
UmarShoh

Mavzu yaratish 12-Iyun-2018 11:36 (1 daqiqa o‘tgach)

iJalol_Production

Jins:
Yigit
Staj:
1 yil 6 oy
Xabarlar:
75
Taqiq:

Tavsif: Go'zal va yoqimli odam Nani Samanthaga oshiq bo'lib, unga javoban javob beradi. Lekin bu hikoyada uchinchi - haqiqiy gangster Samantha'ya ko'zlarini tikdi, u o'z xohlagan narsasini olish uchun hech narsa qila olmaydi. U Nani'ni o'ldiradi, ammo o'limdan oldin qasos olishga qasam ichadi. Nani qotilning yonida hech qanday shubhali qizni tashlab ketmaslik va adolatni ta'minlash uchun Nani qayta tug'iladi. Ammo yana bir kishi tug'ilib o'sishi uzoq vaqtni anglatadi va Nani kutmaydi. Va umrining uzunligi 17 kun bo'lgan uyga uchib kelayotgani kabi, u qayta tug'ilishga rozi bo'ladi. 17 kun ichida, hatto chivin bo'lsa ham nima qila olasiz? Banditlar bu haqda to'liq bilib olishadi....
Google Translate`ni ishimi bu. tushunarsz ekan.

Mavzu yaratish 12-Iyun-2018 12:15 (40 daqiqa o‘tgach)

Iqitibos

Profil ShX

UmarShoh ®

Jins:
Yigit
Staj:
1 yil 7 oy
Xabarlar:
403
Taqiq:

Torrent fayl yangilandi

Mavzu yaratish 18-Iyun-2018 11:15 (5 kun o‘tgach)

Iqitibos

Profil ShX
Xabarlarni ko‘rsatish:    

Hozirgi vaqt: 22-Okt 09:39

Vaqtlar farqi: UTC + 5



Siz mavzu yaratishingiz mumkin emas
Siz xabarlarga javob qaytarishingiz mumkin emas
Siz o‘z xabarlaringizni tahrirlashingiz mumkin emas
Siz o‘z xabarlaringizni o‘chirishingiz mumkin emas
Siz so‘rovlarda ovoz berishingiz mumkin emas
Siz xabalarga fayllarni biriktirishingiz mumkin emas
Siz fayllarni ko‘chirishingiz mumkin emas