˂
˃
Tarqatmalar statistikasi
Ko‘chirmoqdaman: [ 13 ]
Ko‘chirib bo‘ldim: [ 7 ]
 
     
 
 

UmarShoh ®

Jins:
Yigit
Staj:
2 yil 4 oy
Xabarlar:
431
Taqiq:

Panjara ortida / Prison Break Chiqqan yili: 2003-2017
Davlat: AQSH
Janr: detektiv, drama, triller, jinoiy ish
Davomiyligi: ~00:40 min
Tarjima 1: Professional dublyaj - [Zo'rTV]
Tarjima 2: To'liq dublyaj - [RenTV]
Subtitrlar: Rus | Eng - to'liq
Rejissyor: : Paul Scheuring Rollarda: Dominic Purcell, Wentworth Miller, Amaury Nolasco, Robert Neppo, Marshall Olman va boshqalar. Tavsif: Maykl o'lim jazosiga hukm qilingan akasining aybsizligiga ishonadi,
va uning o'zi adolatni qayta tiklashga qaror qiladi. U shu maqsadda jinoyatga qo'l uradi va shu uchun akasi o'tirgan panjara ortiga tushadi.
Usha, Maykl o'zi yaxshi biladigan, chunki uning o'zi uni quruvchi injener sifatida yaratgan... Qutqarish rejasi esa juda ham ajoyib...
Videoning sifati: BluRay 1080p HEVC 10bit
Video format: H.265
Video: 1920x1080 | ~5455 kbps | 23.976fps
Audio: MP3 | 41 kHz | 2.0 | 128 kbps | Zo'rTV
Audio 2: AAC | 48 kHz | 6.0 | 472 kbps | Orginal
Audio 3: AAC | 48 kHz | 2.0 | 112 kbps | Ren-tv

Media Info

General
Unique ID : 162393690645308114794211193110567710631 (0x7A2BE31CDFCCD8B29CAEAD8AE9CDEFA7)
Complete name : D:\UMARSHOX\Seriallar\Panjara Ortida (1-5 Fasllar 1080p x265 10bit)\3 - Fasl\06.mkv
Format : Matroska
Format version : Version 4
File size : 1.94 GiB
Duration : 44 min 1 s
Overall bit rate : 6 324 kb/s
Encoded date : UTC 2020-04-14 05:38:33
Writing application : mkvmerge v45.0.0 ('Heaven in Pennies') 64-bit
Writing library : libebml v1.3.10 + libmatroska v1.5.2
Writing frontend : StaxRip v1.7.0.6
Video
ID : 1
Format : HEVC
Format/Info : High Efficiency Video Coding
Format profile : Main 10@L4@Main
Codec ID : V_MPEGH/ISO/HEVC
Duration : 44 min 1 s
Bit rate : 5 455 kb/s
Width : 1 920 pixels
Height : 1 080 pixels
Display aspect ratio : 16:9
Frame rate mode : Constant
Frame rate : 23.976 (24000/1001) FPS
Color space : YUV
Chroma subsampling : 4:2:0
Bit depth : 10 bits
Bits/(Pixel*Frame) : 0.110
Stream size : 1.68 GiB (86%)
Writing library : x265 3.0+2-ge71f790de+23:[Windows][GCC 8.2.1][64 bit] Yuuki 10bit
Encoding settings : rc=crf / crf=23.0000 / qcomp=0.60 / qpstep=4 / stats-write=0 / stats-read=0 / no-lossless / no-cu-lossless / aq-mode=3 / aq-strength=0.80 / cbqpoffs=0 / crqpoffs=0 / ipratio=1.40 / pbratio=1.30 / psy-rd=2.00 / psy-rdoq=1.00 / deblock=-3:-3 / ref=4 / limit-refs=3 / limit-modes / bframes=8 / b-adapt=2 / bframe-bias=0 / b-pyramid / b-intra / weightp / weightb / min-keyint=23 / max-keyint=250 / rc-lookahead=80 / gop-lookahead=0 / scenecut=40 / radl=0 / max-cu-size=64 / min-cu-size=8 / me=3 / subme=5 / merange=57 / rdoq-level=2 / rd=4 / rdpenalty=0 / dynamic-rd=0.00 / no-rd-refine / ----- / cutree / no-sao / no-rect / no-amp / open-gop / wpp / no-pmode / no-pme / no-psnr / no-ssim / nr-intra=0 / nr-inter=0 / no-constrained-intra / no-strong-intra-smoothing / max-tu-size=32 / tu-inter-depth=1 / tu-intra-depth=1 / limit-tu=0 / qg-size=32 / qpmax=69 / qpmin=0 / ----- / cpuid=1111039 / frame-threads=3 / numa-pools=12 / log-level=2 / input-csp=1 / input-res=1920x1080 / interlace=0 / level-idc=0 / high-tier=1 / uhd-bd=0 / no-allow-non-conformance / no-repeat-headers / no-aud / no-hrd / info / hash=0 / no-temporal-layers / lookahead-slices=4 / no-splice / no-intra-refresh / no-ssim-rd / signhide / no-tskip / max-merge=3 / temporal-mvp / no-analyze-src-pics / no-sao-non-deblock / no-early-skip / rskip / no-fast-intra / no-tskip-fast / no-splitrd-skip / zone-count=0 / no-strict-cbr / no-rc-grain / no-const-vbv / sar=0 / overscan=0 / videoformat=5 / range=0 / colorprim=2 / transfer=2 / colormatrix=2 / chromaloc=0 / display-window=0 / max-cll=0,0 / min-luma=0 / max-luma=1023 / log2-max-poc-lsb=8 / vui-timing-info / vui-hrd-info / slices=1 / no-opt-qp-pps / no-opt-ref-list-length-pps / no-multi-pass-opt-rps / scenecut-bias=0.05 / no-opt-cu-delta-qp / no-aq-motion / no-hdr / no-hdr-opt / no-dhdr10-opt / no-idr-recovery-sei / analysis-reuse-level=5 / scale-factor=0 / refine-intra=0 / refine-inter=0 / refine-mv=0 / refine-ctu-distortion=0 / no-limit-sao / ctu-info=0 / no-lowpass-dct / refine-analysis-type=0 / copy-pic=1 / max-ausize-factor=1.0 / no-dynamic-refine / no-single-sei / no-hevc-aq / qp-adaptation-range=1.00
Default : Yes
Forced : No
Audio #1
ID : 2
Format : AAC LC
Format/Info : Advanced Audio Codec Low Complexity
Codec ID : A_AAC-2
Duration : 44 min 1 s
Bit rate : 472 kb/s
Channel(s) : 6 channels
Channel layout : C L R Ls Rs LFE
Sampling rate : 48.0 kHz
Frame rate : 46.875 FPS (1024 SPF)
Compression mode : Lossy
Delay relative to video : 20 ms
Stream size : 149 MiB (7%)
Language : English
Default : Yes
Forced : No
Audio #2
ID : 12
Format : MPEG Audio
Format version : Version 1
Format profile : Layer 3
Format settings : Joint stereo / MS Stereo
Codec ID : A_MPEG/L3
Codec ID/Hint : MP3
Duration : 44 min 1 s
Bit rate mode : Constant
Bit rate : 128 kb/s
Channel(s) : 2 channels
Sampling rate : 48.0 kHz
Frame rate : 41.667 FPS (1152 SPF)
Compression mode : Lossy
Stream size : 40.3 MiB (2%)
Writing library : LAME3.100
Encoding settings : -m j -V 4 -q 2 -lowpass 17 -b 128
Default : No
Forced : No
Audio #3
ID : 13
Format : MPEG Audio
Format version : Version 1
Format profile : Layer 3
Codec ID : A_MPEG/L3
Codec ID/Hint : MP3
Duration : 44 min 1 s
Bit rate mode : Constant
Bit rate : 128 kb/s
Channel(s) : 2 channels
Sampling rate : 48.0 kHz
Frame rate : 41.667 FPS (1152 SPF)
Compression mode : Lossy
Stream size : 40.3 MiB (2%)
Writing library : LAME3.98r
Encoding settings : -m s -V 4 -q 2 -lowpass 17 -b 128
Default : No
Forced : No
Text #1
ID : 3
Format : PGS
Muxing mode : zlib
Codec ID : S_HDMV/PGS
Codec ID/Info : Picture based subtitle format used on BDs/HD-DVDs
Duration : 43 min 58 s
Bit rate : 36.3 kb/s
Count of elements : 1158
Stream size : 11.4 MiB (1%)
Language : Dutch
Default : No
Forced : No
Text #2
ID : 4
Format : PGS
Muxing mode : zlib
Codec ID : S_HDMV/PGS
Codec ID/Info : Picture based subtitle format used on BDs/HD-DVDs
Duration : 43 min 58 s
Bit rate : 40.4 kb/s
Count of elements : 1218
Stream size : 12.7 MiB (1%)
Language : English
Default : No
Forced : No
Text #3
ID : 5
Format : PGS
Muxing mode : zlib
Codec ID : S_HDMV/PGS
Codec ID/Info : Picture based subtitle format used on BDs/HD-DVDs
Duration : 43 min 58 s
Bit rate : 36.9 kb/s
Count of elements : 1126
Stream size : 11.6 MiB (1%)
Language : Spanish
Default : No
Forced : No
Text #4
ID : 6
Format : PGS
Muxing mode : zlib
Codec ID : S_HDMV/PGS
Codec ID/Info : Picture based subtitle format used on BDs/HD-DVDs
Duration : 43 min 57 s
Bit rate : 27.6 kb/s
Count of elements : 1104
Stream size : 8.67 MiB (0%)
Language : French
Default : No
Forced : No
Text #5
ID : 7
Format : PGS
Muxing mode : zlib
Codec ID : S_HDMV/PGS
Codec ID/Info : Picture based subtitle format used on BDs/HD-DVDs
Duration : 43 min 58 s
Bit rate : 33.5 kb/s
Count of elements : 1016
Stream size : 10.5 MiB (1%)
Language : Danish
Default : No
Forced : No
Text #6
ID : 8
Format : PGS
Muxing mode : zlib
Codec ID : S_HDMV/PGS
Codec ID/Info : Picture based subtitle format used on BDs/HD-DVDs
Duration : 43 min 58 s
Bit rate : 33.9 kb/s
Count of elements : 1144
Stream size : 10.7 MiB (1%)
Language : Finnish
Default : No
Forced : No
Text #7
ID : 9
Format : PGS
Muxing mode : zlib
Codec ID : S_HDMV/PGS
Codec ID/Info : Picture based subtitle format used on BDs/HD-DVDs
Duration : 43 min 58 s
Bit rate : 36.9 kb/s
Count of elements : 1174
Stream size : 11.6 MiB (1%)
Language : Swedish
Default : No
Forced : No
Text #8
ID : 10
Format : PGS
Muxing mode : zlib
Codec ID : S_HDMV/PGS
Codec ID/Info : Picture based subtitle format used on BDs/HD-DVDs
Duration : 43 min 58 s
Bit rate : 36.1 kb/s
Count of elements : 1186
Stream size : 11.3 MiB (1%)
Language : Norwegian Bokmal
Default : No
Forced : No
Text #9
ID : 11
Format : PGS
Muxing mode : zlib
Codec ID : S_HDMV/PGS
Codec ID/Info : Picture based subtitle format used on BDs/HD-DVDs
Duration : 43 min 2 s
Bit rate : 33.3 kb/s
Count of elements : 1318
Stream size : 10.3 MiB (1%)
Language : Chinese
Default : No
Forced : No
Menu
00:00:00.000 : en:00:00:00.000
00:04:28.226 : en:00:04:28.226
00:06:19.128 : en:00:06:19.128
00:09:35.408 : en:00:09:35.408
00:13:10.498 : en:00:13:10.498
00:16:57.266 : en:00:16:57.266
00:21:31.999 : en:00:21:31.999
00:24:10.782 : en:00:24:10.782
00:26:06.648 : en:00:26:06.648
00:31:05.488 : en:00:31:05.488
00:35:22.912 : en:00:35:22.912
00:39:36.540 : en:00:39:36.540
Profil ShX

ozod5555

Jins:
Yigit
Staj:
1 yil 10 oy
Xabarlar:
3
Taqiq:

Tezlik Qani

Mavzu yaratish 18-Apr-2020 01:20 (39 daqiqa o‘tgach)

Iqitibos

Profil ShX

UmarShoh ®

Jins:
Yigit
Staj:
2 yil 4 oy
Xabarlar:
431
Taqiq:

ozod5555, Ozgina Kutib turish kerak! aa

Mavzu yaratish 18-Apr-2020 05:49 (4 soat o‘tgach)

Iqitibos

Profil ShX

AxeL

Jins:
Yigit
Staj:
2 yil 3 oy
Xabarlar:
775

Qayerdan: Gronland, Norway

Taqiq:

9094
Video format: H.265
Video: 1920x1080 | ~5455 kbps | 23.976fps
Video format: MKV
Video: x265 1920x1080 23.976 fps 5455 kbps
ko'rinishida bo'lishi kerak, x265 bu kodek formati, video formati emas

Mavzu yaratish 18-Apr-2020 11:36 (5 soat o‘tgach)

Iqitibos

Profil ShX

ozod5555

Jins:
Yigit
Staj:
1 yil 10 oy
Xabarlar:
3
Taqiq:

TEZLIK Pasku Tezlika Yordam Berilar 20kb Tortiyabti ku

Mavzu yaratish 18-Apr-2020 13:18 (1 soat 42 daqiqa o‘tgach)

Iqitibos

Profil ShX

duphaston_10

Jins:
Ko‘rsatilmagan
Staj:
1 yil 9 oy
Xabarlar:
6
Taqiq:

salom hammaga. mandayam FHD HEVC format hamma qismi bor. 3 ta til subtitri bilan. lekin 70 gb nega unaqa?

Mavzu yaratish 19-Apr-2020 23:40 (1 kun 10 soat o‘tgach)

Iqitibos

Profil ShX

UmarShoh ®

Jins:
Yigit
Staj:
2 yil 4 oy
Xabarlar:
431
Taqiq:

duphaston_10, sifatida farqi bor! aa

Mavzu yaratish 20-Apr-2020 00:21 (41 daqiqa o‘tgach)

Iqitibos

Profil ShX

Bestfriend

Jins:
Ko‘rsatilmagan
Staj:
11 oy 19 kun
Xabarlar:
14
Taqiq:

SALOM 5-FASL OVOZI OLDINDA VIDEOSI ORQADA QOLIB KETIBTI

Mavzu yaratish 16-May-2020 08:42 (26 kun o‘tgach)

Iqitibos

Profil ShX

farrux1981

Jins:
Yigit
Staj:
1 yil 1 oy
Xabarlar:
49
Taqiq:

kim yuklashni xohlasa, boglab quydim

Mavzu yaratish 20-Iyun-2020 10:25 (1 oy 4 kun o‘tgach)

Iqitibos

Profil ShX
Forum Mavzu Muallif Hajm
Jahon seriallari Panjara ortida / Mavsum: 1-2-3-4 / 01-80 Qism (Pol Shoyring) [2005-2009, Jangari, triller, drama, jinoiy ish, detektiv, WEB-DLRip] Adham Saidumarov 15,61 GB
Yuqori sifatdagi seriallar [HD] Panjara ortida / Mavsumalar: 1-5 dan 2 / Qismlar: 1-89 dan 33 (Paul Scheuring) [2005-2017, detektiv, drama, triller, jinoiy ish, BDRip 720p HEVC] DUB (Zo'rtv), DUB (REN-TV), MVO (NovaFilm), Eng... Prince 8,81 GB
Jahon seriallari Panjara ortida / Побег из тюрьмы / Prison Break / Fasl: 1 / Qismlar: 1-22 / Jami: 22 (Pol Shoyring / Paul Scheuring) [2005-2006, jangari, triller, drama, jinoiy ish, detektiv, BDRip-AVC] O... MRLG 9,61 GB
Jahon seriallari Panjara ortida / Побег из тюрьмы / Prison Break / Fasl: 2 / Qismlar: to'liq / Jami: 22 (Pol Shoyring / Paul Scheuring) [2006, jangari, triller, drama, jinoiy ish, detektiv, BDRip] O... MRLG 10,54 GB
Jahon seriallari Panjara ortida / Побег из тюрьмы / Prison Break / Fasl: 3 / Qismlar: 1-13 / Jami: 13 (Pol Shoyring / Paul Scheuring) [2007-2008, jangari, triller, drama, jinoiy ish, detektiv, BDRip] O... MRLG 6,23 GB
Jahon seriallari Panjara ortida / Побег из тюрьмы / Prison Break / Fasl: 4 / Qismlar: 1-23 / Jami: 23 (Pol Shoyring / Paul Scheuring) [2008-2009, jangari, triller, drama, jinoiy ish, detektiv, BDRip] O... MRLG 11,65 GB
Jahon seriallari Panjara ortida / Побег из тюрьмы / Prison Break / Fasl: 5 / Qismlar: 1-9 / Jami: 9 (Nelson MakKormik) [2017, jangari, triller, drama, jinoiy ish, detektiv, WEB-DLRip] O'zbek tilida Dj.Max 6,54 GB
Xabarlarni ko‘rsatish:    

Hozirgi vaqt: 14-Iyul 10:25

Vaqtlar farqi: UTC + 5



Siz mavzu yaratishingiz mumkin emas
Siz xabarlarga javob qaytarishingiz mumkin emas
Siz o‘z xabarlaringizni tahrirlashingiz mumkin emas
Siz o‘z xabarlaringizni o‘chirishingiz mumkin emas
Siz so‘rovlarda ovoz berishingiz mumkin emas
Siz xabalarga fayllarni biriktirishingiz mumkin emas
Siz fayllarni ko‘chirishingiz mumkin emas